<?xml version="1.0" standalone="no"?>
<!DOCTYPE svg PUBLIC "-//W3C//DTD SVG 1.1//EN" "http://www.w3.org/Graphics/SVG/1.1/DTD/svg11.dtd" >
<svg xmlns="http://www.w3.org/2000/svg" xmlns:xlink="http://www.w3.org/1999/xlink" version="1.1">
<metadata>
Created by FontForge 20170731 at Wed Sep 20 00:59:36 2017
 By Aleksey,,,
Copyright 2016 Google Inc. All Rights Reserved.
</metadata>
<defs>
<font id="NotoSansArabicUI-Medium" horiz-adv-x="0" >
  <font-face 
    font-family="Noto Sans Arabic UI Md"
    font-weight="500"
    font-stretch="normal"
    units-per-em="1000"
    panose-1="2 11 6 2 4 5 4 2 2 4"
    ascent="800"
    descent="-200"
    bbox="-112 -293 2479 1059"
    underline-thickness="50"
    underline-position="-175"
    unicode-range="U+0020-FEFC"
  />
<missing-glyph horiz-adv-x="600" 
d="M94 0v714h411v-714h-411zM145 51h309v612h-309v-612z" />
    <glyph glyph-name="uniFD82" unicode="&#xfee0;&#xfea4;&#xfef0;" horiz-adv-x="1710" arabic-form="final" 
d="M1397 -5l9 99q54 0 76 10.5t25.5 38t2.5 78.5l-17 498h100l17 -497q2 -76 31 -102t79 -26q25 0 37 -14t12 -33q0 -21 -16.5 -36.5t-42.5 -15.5q-51 0 -85 18t-50 50q-22 -36 -65 -52t-113 -16zM755 -5l9 99q105 0 203 28.5t178 83.5q-40 32 -96.5 51.5t-123.5 19.5
q-46 0 -95 -11l-17 94q28 8 56 12t54 4q66 0 117 -18.5t92 -42t78 -42t75 -18.5h26l9 -90q-19 0 -37 -3t-34 -8q22 -36 58.5 -48t99.5 -12q26 0 37.5 -14t11.5 -33q0 -21 -16 -36.5t-43 -15.5q-54 0 -97.5 9.5t-75.5 37t-50 80.5q-36 -19 -75 -41t-87.5 -41.5t-111 -32
t-145.5 -12.5zM29 8q0 35 9.5 81.5t35.5 105.5l87 -32q-17 -43 -25 -78t-8 -65q0 -52 30 -86t82.5 -50.5t118.5 -16.5q76 0 136.5 15t95.5 41.5t35 59.5q0 23 -37 41.5t-107 39.5l24 100q98 -39 160 -54.5t99 -15.5q25 0 37 -14t12 -33q0 -21 -16.5 -36.5t-42.5 -15.5h-40
q1 -9 2.5 -15.5t1.5 -14.5q0 -47 -44 -92.5t-128.5 -75t-206.5 -29.5q-88 0 -158.5 26t-111.5 79t-41 135z" />
    <glyph glyph-name="uniFDF2" unicode="&#x627;&#xfedf;&#xfee0;&#xfeea;" horiz-adv-x="1339" arabic-form="isolated" 
d="M507 -5q-68 0 -116.5 21.5t-69.5 77.5q-56 -13 -108.5 -10t-94 21t-65.5 50t-24 77q0 58 35 104.5t94.5 79t132.5 45.5l-3 76h98l17 -337q2 -45 15.5 -67.5t38 -30.5t60.5 -8q53 0 74.5 9.5t25.5 37t2 80.5l-13 365h100l13 -364q3 -78 32 -104t79 -26q53 0 75 11t25.5 39
t1.5 79l-18 498h98l20 -495q2 -55 -4 -97.5t-27.5 -72t-65 -44.5t-115.5 -15q-52 0 -85 18.5t-50 49.5q-22 -35 -64.5 -51.5t-113.5 -16.5zM1179 0l-20 719h98l20 -719h-98zM304 187l-8 175q-81 -10 -125.5 -45t-44.5 -72q0 -22 17 -35.5t43.5 -20.5t58 -7t59.5 5zM574 632
q-39 0 -52 26t-13 57q0 11 1.5 23.5t4.5 28.5l53 14q-6 -34 -6 -57q0 -34 23 -34q14 0 23 15t11 60v30l50 18v-61q0 -13 5 -22.5t22 -9.5t22.5 10t5.5 26q0 17 -4 34.5t-11 34.5l48 14q10 -20 16.5 -44t6.5 -44q0 -33 -18.5 -59.5t-58.5 -26.5q-31 0 -51 18
q-9 -23 -29.5 -37t-48.5 -14zM605 844l-6 174h66l6 -174h-66z" />
    <glyph glyph-name="uniFEF5" unicode="&#xfedf;&#xfe82;" horiz-adv-x="597" arabic-form="isolated" 
d="M393 536q0 25 -3 56.5t-7.5 62.5t-8.5 53l102 12q4 -20 7.5 -52.5t6 -66t2.5 -57.5q0 -126 -50 -230q50 -52 71.5 -94.5t21.5 -80.5q0 -32 -14.5 -64t-51.5 -53.5t-105 -21.5h-249v97q145 104 210 202q-56 49 -129.5 104t-155.5 111l55 78q175 -122 273 -207q13 35 19 73
t6 78zM252 98h108q51 0 67 15.5t16 36.5q0 15 -13 36.5t-37 46.5q-54 -73 -141 -135zM487 796q-30 0 -54 10.5t-44 20.5t-37 10q-18 0 -32.5 -9t-30.5 -25l-41 36q24 30 50 46.5t54 16.5q25 0 46 -10t42.5 -20t46.5 -10q16 0 30 5.5t34 17.5l30 -45q-33 -29 -55.5 -36.5
t-38.5 -7.5z" />
    <glyph glyph-name="uniFEF6" unicode="&#xfee0;&#xfe82;" horiz-adv-x="623" arabic-form="final" 
d="M142 -5q-27 0 -54.5 4.5t-38.5 6.5l13 98q84 -11 157.5 0.5t120.5 59.5q-39 63 -116 153t-184 187l64 68q115 -109 182 -186t105 -132q14 44 15 101l-14 364h100l20 -507q2 -48 10 -73.5t33 -35t78 -9.5q25 0 37 -14t12 -33q0 -21 -16 -36.5t-43 -15.5q-73 0 -116 13.5
t-63.5 42t-26.5 73.5q-34 -57 -81.5 -84.5t-99 -36t-94.5 -8.5zM505 796q-30 0 -54 10.5t-44 20.5t-37 10q-18 0 -32.5 -9t-30.5 -25l-41 36q24 30 50 46.5t54 16.5q25 0 46 -10t42.5 -20t46.5 -10q16 0 30 5.5t34 17.5l30 -45q-33 -29 -55.5 -36.5t-38.5 -7.5z" />
    <glyph glyph-name="uniFEF7" unicode="&#xfedf;&#xfe84;" horiz-adv-x="597" arabic-form="isolated" 
d="M393 536q0 25 -3 56.5t-7.5 62.5t-8.5 53l102 12q4 -20 7.5 -52.5t6 -66t2.5 -57.5q0 -126 -50 -230q50 -52 71.5 -94.5t21.5 -80.5q0 -32 -14.5 -64t-51.5 -53.5t-105 -21.5h-249v97q145 104 210 202q-56 49 -129.5 104t-155.5 111l55 78q175 -122 273 -207q13 35 19 73
t6 78zM252 98h108q51 0 67 15.5t16 36.5q0 15 -13 36.5t-37 46.5q-54 -73 -141 -135zM326 760l-13 59q30 6 48 11q-19 13 -32.5 34t-13.5 46q0 47 32.5 70t72.5 23q25 0 49 -8l-8 -56q-10 2 -19.5 4t-20.5 2q-20 0 -32.5 -9t-12.5 -25q0 -24 19 -40.5t37 -21.5q37 10 64 21
l18 -55q-38 -14 -91 -29.5t-97 -25.5z" />
    <glyph glyph-name="uniFEF8" unicode="&#xfee0;&#xfe84;" horiz-adv-x="623" arabic-form="final" 
d="M142 -5q-27 0 -54.5 4.5t-38.5 6.5l13 98q84 -11 157.5 0.5t120.5 59.5q-39 63 -116 153t-184 187l64 68q115 -109 182 -186t105 -132q14 44 15 101l-14 364h100l20 -507q2 -48 10 -73.5t33 -35t78 -9.5q25 0 37 -14t12 -33q0 -21 -16 -36.5t-43 -15.5q-73 0 -116 13.5
t-63.5 42t-26.5 73.5q-34 -57 -81.5 -84.5t-99 -36t-94.5 -8.5zM344 760l-13 59q30 6 48 11q-19 13 -32.5 34t-13.5 46q0 47 32.5 70t72.5 23q25 0 49 -8l-8 -56q-10 2 -19.5 4t-20.5 2q-20 0 -32.5 -9t-12.5 -25q0 -24 19 -40.5t37 -21.5q37 10 64 21l18 -55
q-38 -14 -91 -29.5t-97 -25.5z" />
    <glyph glyph-name="uniFEF9" unicode="&#xfedf;&#xfe88;" horiz-adv-x="597" arabic-form="isolated" 
d="M393 536q0 25 -3 56.5t-7.5 62.5t-8.5 53l102 12q4 -20 7.5 -52.5t6 -66t2.5 -57.5q0 -126 -50 -230q50 -52 71.5 -94.5t21.5 -80.5q0 -32 -14.5 -64t-51.5 -53.5t-105 -21.5h-249v97q145 104 210 202q-56 49 -129.5 104t-155.5 111l55 78q175 -122 273 -207q13 35 19 73
t6 78zM252 98h108q51 0 67 15.5t16 36.5q0 15 -13 36.5t-37 46.5q-54 -73 -141 -135zM97.001 -268.586l-11.7002 53.1016q27.001 5.40039 43.2012 9.90039q-17.1006 11.7002 -29.251 30.6006t-12.1504 41.4014q0 42.3008 29.251 63.002q29.251 20.7002 65.252 20.7002
q22.5 0 44.1006 -7.2002l-7.2002 -50.4014q-9 1.7998 -17.5498 3.59961q-8.55078 1.80078 -18.4512 1.80078q-18 0 -29.25 -8.10059q-11.251 -8.10059 -11.251 -22.501q0 -21.6006 17.1006 -36.4502q17.1006 -14.8506 33.3008 -19.3506q33.3008 9 57.6016 18.9004
l16.2002 -49.502q-34.2002 -12.5996 -81.9014 -26.5508q-47.7021 -13.9502 -87.3027 -22.9502z" />
    <glyph glyph-name="uniFEFA" unicode="&#xfee0;&#xfe88;" horiz-adv-x="623" arabic-form="final" 
d="M142 -5q-27 0 -54.5 4.5t-38.5 6.5l13 98q84 -11 157.5 0.5t120.5 59.5q-39 63 -116 153t-184 187l64 68q115 -109 182 -186t105 -132q14 44 15 101l-14 364h100l20 -507q2 -48 10 -73.5t33 -35t78 -9.5q25 0 37 -14t12 -33q0 -21 -16 -36.5t-43 -15.5q-73 0 -116 13.5
t-63.5 42t-26.5 73.5q-34 -57 -81.5 -84.5t-99 -36t-94.5 -8.5zM97.001 -268.586l-11.7002 53.1016q27.001 5.40039 43.2012 9.90039q-17.1006 11.7002 -29.251 30.6006t-12.1504 41.4014q0 42.3008 29.251 63.002q29.251 20.7002 65.252 20.7002q22.5 0 44.1006 -7.2002
l-7.2002 -50.4014q-9 1.7998 -17.5498 3.59961q-8.55078 1.80078 -18.4512 1.80078q-18 0 -29.25 -8.10059q-11.251 -8.10059 -11.251 -22.501q0 -21.6006 17.1006 -36.4502q17.1006 -14.8506 33.3008 -19.3506q33.3008 9 57.6016 18.9004l16.2002 -49.502
q-34.2002 -12.5996 -81.9014 -26.5508q-47.7021 -13.9502 -87.3027 -22.9502z" />
    <glyph glyph-name="uniFEFB" unicode="&#xfedf;&#xfe8e;" horiz-adv-x="597" arabic-form="isolated" 
d="M393 536q0 25 -3 56.5t-7.5 62.5t-8.5 53l102 12q4 -20 7.5 -52.5t6 -66t2.5 -57.5q0 -126 -50 -230q50 -52 71.5 -94.5t21.5 -80.5q0 -32 -14.5 -64t-51.5 -53.5t-105 -21.5h-249v97q145 104 210 202q-56 49 -129.5 104t-155.5 111l55 78q175 -122 273 -207q13 35 19 73
t6 78zM252 98h108q51 0 67 15.5t16 36.5q0 15 -13 36.5t-37 46.5q-54 -73 -141 -135z" />
    <glyph glyph-name="uniFEFC" unicode="&#xfee0;&#xfe8e;" horiz-adv-x="623" arabic-form="final" 
d="M142 -5q-27 0 -54.5 4.5t-38.5 6.5l13 98q84 -11 157.5 0.5t120.5 59.5q-39 63 -116 153t-184 187l64 68q115 -109 182 -186t105 -132q14 44 15 101l-14 364h100l20 -507q2 -48 10 -73.5t33 -35t78 -9.5q25 0 37 -14t12 -33q0 -21 -16 -36.5t-43 -15.5q-73 0 -116 13.5
t-63.5 42t-26.5 73.5q-34 -57 -81.5 -84.5t-99 -36t-94.5 -8.5z" />
    <glyph glyph-name="lam_alefWasla-ar" unicode="&#xfedf;&#xfb51;" horiz-adv-x="597" 
d="M393 536q0 25 -3 56.5t-7.5 62.5t-8.5 53l102 12q4 -20 7.5 -52.5t6 -66t2.5 -57.5q0 -126 -50 -230q50 -52 71.5 -94.5t21.5 -80.5q0 -32 -14.5 -64t-51.5 -53.5t-105 -21.5h-249v97q145 104 210 202q-56 49 -129.5 104t-155.5 111l55 78q175 -122 273 -207q13 35 19 73
t6 78zM252 98h108q51 0 67 15.5t16 36.5q0 15 -13 36.5t-37 46.5q-54 -73 -141 -135zM407 786q-22 0 -52.5 2t-58 5.5t-40.5 5.5l7 55q9 -1 22 -2.5t28 -3.5q14 30 35 61t49.5 52t66.5 21q35 0 64 -21.5t29 -68.5q0 -27 -12.5 -51t-45 -39.5t-92.5 -15.5zM460 924
q-23 0 -46 -22.5t-41 -58.5q19 -1 34 -1q56 0 73.5 13t17.5 32q0 20 -11.5 28.5t-26.5 8.5z" />
    <glyph glyph-name="lam_alefWasla-ar.fina" unicode="&#xfee0;&#xfb51;" horiz-adv-x="623" 
d="M142 -5q-27 0 -54.5 4.5t-38.5 6.5l13 98q84 -11 157.5 0.5t120.5 59.5q-39 63 -116 153t-184 187l64 68q115 -109 182 -186t105 -132q14 44 15 101l-14 364h100l20 -507q2 -48 10 -73.5t33 -35t78 -9.5q25 0 37 -14t12 -33q0 -21 -16 -36.5t-43 -15.5q-73 0 -116 13.5
t-63.5 42t-26.5 73.5q-34 -57 -81.5 -84.5t-99 -36t-94.5 -8.5zM425 786q-22 0 -52.5 2t-58 5.5t-40.5 5.5l7 55q9 -1 22 -2.5t28 -3.5q14 30 35 61t49.5 52t66.5 21q35 0 64 -21.5t29 -68.5q0 -27 -12.5 -51t-45 -39.5t-92.5 -15.5zM478 924q-23 0 -46 -22.5t-41 -58.5
q19 -1 34 -1q56 0 73.5 13t17.5 32q0 20 -11.5 28.5t-26.5 8.5z" />
    <glyph glyph-name="yehKashmiri-ar.init" unicode="&#x620;" horiz-adv-x="317" 
d="M0 -5l10 99q59 0 92 5t46.5 22.5t13.5 55.5q0 26 -8 62t-21 75.5t-26 77.5l97 32q12 -33 24.5 -75t20.5 -84.5t8 -76.5q0 -74 -28.5 -116t-85.5 -59.5t-143 -17.5zM110 -128q-39 0 -65.5 27.5t-26.5 64.5q0 38 26.5 65.5t65.5 27.5q38 0 65 -27.5t27 -65.5
q0 -37 -27 -64.5t-65 -27.5zM110 -73q16 0 28 10.5t12 26.5q0 17 -12 28t-28 11t-28 -11t-12 -28q0 -16 12 -26.5t28 -10.5z" />
    <glyph glyph-name="yehKashmiri-ar.medi" unicode="&#x620;" horiz-adv-x="384" 
d="M0 -5l10 99q46 0 73 7.5t42.5 29t26 62.5t22.5 109l94 -17q-6 -26 -12.5 -60t-6.5 -59q0 -22 7.5 -38t37.5 -25t100 -9q26 0 37 -14t11 -33q0 -21 -16 -36.5t-42 -15.5q-89 0 -129.5 17t-54.5 54q-33 -45 -81 -58t-119 -13zM116 -125q-39 0 -65.5 27.5t-26.5 64.5
q0 38 26.5 65.5t65.5 27.5q38 0 65 -27.5t27 -65.5q0 -37 -27 -64.5t-65 -27.5zM116 -70q16 0 28 10.5t12 26.5q0 17 -12 28t-28 11t-28 -11t-12 -28q0 -16 12 -26.5t28 -10.5z" />
    <glyph glyph-name="yehKashmiri-ar.fina" unicode="&#x620;" horiz-adv-x="813" 
d="M29 188q0 35 9.5 81.5t35.5 105.5l87 -32q-17 -43 -25 -78t-8 -65q0 -52 30 -86.5t82.5 -51.5t118.5 -17q97 0 150.5 19t53.5 48q0 13 -9.5 24t-37 29.5t-81.5 51.5l54 88q81 -65 141.5 -112t107 -73t85.5 -26q26 0 37.5 -14t11.5 -33q0 -21 -16 -36.5t-43 -15.5
q-54 0 -93 15.5t-69 43.5q-24 -42 -100 -74.5t-211 -32.5q-88 0 -158.5 26.5t-111.5 79.5t-41 135zM339 -205q-39 0 -65.5 27.5t-26.5 64.5q0 38 26.5 65.5t65.5 27.5q38 0 65 -27.5t27 -65.5q0 -37 -27 -64.5t-65 -27.5zM339 -150q16 0 28 10.5t12 26.5q0 17 -12 28t-28 11
t-28 -11t-12 -28q0 -16 12 -26.5t28 -10.5z" />
    <glyph glyph-name="kehehTwodotshorizontalabove-ar.init" unicode="&#x63b;" horiz-adv-x="424" 
d="M0 -5l10 99h108q64 0 95 9t41 24t10 32q0 19 -16 51t-66 81q-35 35 -71 64.5t-60.5 50.5t-24.5 30q0 22 5 45t16 33q38 40 127 86t219 109l41 -88q-80 -38 -135.5 -65t-95 -48.5t-72.5 -43.5q125 -101 178.5 -175t53.5 -141q0 -23 -9 -49.5t-36 -50t-79.5 -38.5
t-138.5 -15h-100zM257.238 716.854q-20.9648 0 -36.4609 15.0391q-15.4951 15.04 -15.4951 36.0049q0 20.9639 15.4951 36.46q15.4961 15.4951 36.4609 15.4951q20.9639 0 36.0039 -15.4951q15.0391 -15.4961 15.0391 -36.46q0 -20.9648 -15.0391 -36.0049
q-15.04 -15.0391 -36.0039 -15.0391zM140.566 658.519q-21.877 0 -36.916 15.0391q-15.04 15.04 -15.04 36.0049q0 20.9639 15.04 36.915q15.0391 15.9521 36.916 15.9521q20.9639 0 36.0039 -15.9521q15.0391 -15.9512 15.0391 -36.915q0 -20.9648 -15.0391 -36.0049
q-15.04 -15.0391 -36.0039 -15.0391z" />
    <glyph glyph-name="kehehTwodotshorizontalabove-ar.medi" unicode="&#x63b;" horiz-adv-x="508" 
d="M0 -5l10 99h96q68 0 102 8t44.5 20.5t10.5 27.5q0 22 -17 49.5t-44 57t-57.5 58t-57.5 53.5t-44 43t-17 26q0 54 22 78q26 27 78.5 58t122 65t144.5 71l41 -88q-93 -44 -172 -83t-137 -77q52 -45 96.5 -87.5t82 -89.5t70.5 -106q20 -38 47 -55.5t53 -23t44 -5.5
q26 0 37.5 -14t11.5 -33q0 -21 -16.5 -36.5t-42.5 -15.5q-25 0 -56.5 6.5t-62 24.5t-53.5 51q-31 -42 -84 -62t-152 -20h-100zM233.238 715.854q-20.9648 0 -36.4609 15.0391q-15.4951 15.04 -15.4951 36.0049q0 20.9639 15.4951 36.46q15.4961 15.4951 36.4609 15.4951
q20.9639 0 36.0039 -15.4951q15.0391 -15.4961 15.0391 -36.46q0 -20.9648 -15.0391 -36.0049q-15.04 -15.0391 -36.0039 -15.0391zM116.566 657.519q-21.877 0 -36.916 15.0391q-15.04 15.04 -15.04 36.0049q0 20.9639 15.04 36.915q15.0391 15.9521 36.916 15.9521
q20.9639 0 36.0039 -15.9521q15.0391 -15.9512 15.0391 -36.915q0 -20.9648 -15.0391 -36.0049q-15.04 -15.0391 -36.0039 -15.0391z" />
    <glyph glyph-name="kehehTwodotshorizontalabove-ar.fina" unicode="&#x63b;" horiz-adv-x="968" 
d="M400 -21q-189 0 -279 51.5t-90 157.5q0 40 9.5 84t20.5 81l89 -21q-6 -25 -13 -57.5t-7 -57.5q0 -48 26.5 -79t91 -45.5t178.5 -14.5q116 0 181 10.5t91 27t26 33.5q0 22 -17 49.5t-44.5 57t-57.5 58t-57.5 53.5t-44.5 43t-17 26q0 54 22 78q26 27 78.5 58t122 65.5
t144.5 70.5l41 -88q-93 -44 -172 -83t-137 -77q52 -44 96.5 -86.5t82 -90t70.5 -106.5q21 -37 48 -55t52.5 -23t43.5 -5q26 0 37.5 -14t11.5 -34q0 -21 -16 -36t-43 -15q-25 0 -56 6.5t-62 24t-54 50.5q-24 -32 -68 -53.5t-122.5 -32.5t-205.5 -11zM719.238 716.854
q-20.9648 0 -36.4609 15.0391q-15.4951 15.04 -15.4951 36.0049q0 20.9639 15.4951 36.46q15.4961 15.4951 36.4609 15.4951q20.9639 0 36.0039 -15.4951q15.0391 -15.4961 15.0391 -36.46q0 -20.9648 -15.0391 -36.0049q-15.04 -15.0391 -36.0039 -15.0391z
M602.566 658.519q-21.877 0 -36.916 15.0391q-15.04 15.04 -15.04 36.0049q0 20.9639 15.04 36.915q15.0391 15.9521 36.916 15.9521q20.9639 0 36.0039 -15.9521q15.0391 -15.9512 15.0391 -36.915q0 -20.9648 -15.0391 -36.0049q-15.04 -15.0391 -36.0039 -15.0391z" />
    <glyph glyph-name="kehehThreedotsbelow-ar.init" unicode="&#x63c;" horiz-adv-x="424" 
d="M0 -5l10 99h108q64 0 95 9t41 24t10 32q0 19 -16 51t-66 81q-35 35 -71 64.5t-60.5 50.5t-24.5 30q0 22 5 45t16 33q38 40 127 86t219 109l41 -88q-80 -38 -135.5 -65t-95 -48.5t-72.5 -43.5q125 -101 178.5 -175t53.5 -141q0 -23 -9 -49.5t-36 -50t-79.5 -38.5
t-138.5 -15h-100zM112 -133q-19 0 -32.5 13t-13.5 33q0 19 13.5 32.5t32.5 13.5t33 -13.5t14 -32.5q0 -20 -14 -33t-33 -13zM236 -133q-20 0 -33.5 13t-13.5 33q0 19 13.5 32.5t33.5 13.5q19 0 32 -13.5t13 -32.5q0 -20 -13 -33t-32 -13zM174 -235q-19 0 -33 13.5t-14 32.5
t14 33t33 14t32.5 -14t13.5 -33t-13.5 -32.5t-32.5 -13.5z" />
    <glyph glyph-name="kehehThreedotsbelow-ar.medi" unicode="&#x63c;" horiz-adv-x="508" 
d="M0 -5l10 99h96q68 0 102 8t44.5 20.5t10.5 27.5q0 22 -17 49.5t-44 57t-57.5 58t-57.5 53.5t-44 43t-17 26q0 54 22 78q26 27 78.5 58t122 65t144.5 71l41 -88q-93 -44 -172 -83t-137 -77q52 -45 96.5 -87.5t82 -89.5t70.5 -106q20 -38 47 -55.5t53 -23t44 -5.5
q26 0 37.5 -14t11.5 -33q0 -21 -16.5 -36.5t-42.5 -15.5q-25 0 -56.5 6.5t-62 24.5t-53.5 51q-31 -42 -84 -62t-152 -20h-100zM112 -133q-19 0 -32.5 13t-13.5 33q0 19 13.5 32.5t32.5 13.5t33 -13.5t14 -32.5q0 -20 -14 -33t-33 -13zM236 -133q-20 0 -33.5 13t-13.5 33
q0 19 13.5 32.5t33.5 13.5q19 0 32 -13.5t13 -32.5q0 -20 -13 -33t-32 -13zM174 -235q-19 0 -33 13.5t-14 32.5t14 33t33 14t32.5 -14t13.5 -33t-13.5 -32.5t-32.5 -13.5z" />
    <glyph glyph-name="kehehThreedotsbelow-ar.fina" unicode="&#x63c;" horiz-adv-x="968" 
d="M400 -21q-189 0 -279 51.5t-90 157.5q0 40 9.5 84t20.5 81l89 -21q-6 -25 -13 -57.5t-7 -57.5q0 -48 26.5 -79t91 -45.5t178.5 -14.5q116 0 181 10.5t91 27t26 33.5q0 22 -17 49.5t-44.5 57t-57.5 58t-57.5 53.5t-44.5 43t-17 26q0 54 22 78q26 27 78.5 58t122 65.5
t144.5 70.5l41 -88q-93 -44 -172 -83t-137 -77q52 -44 96.5 -86.5t82 -90t70.5 -106.5q21 -37 48 -55t52.5 -23t43.5 -5q26 0 37.5 -14t11.5 -34q0 -21 -16 -36t-43 -15q-25 0 -56 6.5t-62 24t-54 50.5q-24 -32 -68 -53.5t-122.5 -32.5t-205.5 -11zM359 -154q-19 0 -32.5 13
t-13.5 33q0 19 13.5 32.5t32.5 13.5t33 -13.5t14 -32.5q0 -20 -14 -33t-33 -13zM483 -154q-20 0 -33.5 13t-13.5 33q0 19 13.5 32.5t33.5 13.5q19 0 32 -13.5t13 -32.5q0 -20 -13 -33t-32 -13zM421 -256q-19 0 -33 13.5t-14 32.5t14 33t33 14t32.5 -14t13.5 -33t-13.5 -32.5
t-32.5 -13.5z" />
    <glyph glyph-name="yehVinverted-farsi.init" unicode="&#x63d;" horiz-adv-x="283" 
d="M0 -5l10 99q70 0 99 15t29 68q0 26 -8 62t-20.5 75.5t-26.5 77.5l98 32q13 -33 24.5 -75t19.5 -84.5t8 -76.5q0 -74 -27.5 -116t-79.5 -59.5t-126 -17.5zM94 739l63 6q9 -20 25 -53t33.5 -66.5t29.5 -54.5l-49 -27q-8 11 -20.5 35t-26.5 50.5t-25 48.5
q-11 -26 -23.5 -54.5t-23 -51t-15.5 -30.5l-49 20q5 10 16 32.5t23.5 50t24 53t17.5 41.5zM189 -207q-23 0 -39.5 16t-16.5 39t16.5 39.5t39.5 16.5q22 0 38.5 -16.5t16.5 -39.5t-16.5 -39t-38.5 -16zM42 -207q-24 0 -40 16t-16 39t16 39.5t40 16.5q23 0 38.5 -16.5
t15.5 -39.5t-15.5 -39t-38.5 -16z" />
    <glyph glyph-name="yehVinverted-farsi.medi" unicode="&#x63d;" horiz-adv-x="355" 
d="M0 -5l10 99q41 0 64.5 7.5t36.5 29t22 62.5t21 109l94 -17q-6 -26 -12.5 -60t-6.5 -59q0 -22 9 -38t38.5 -25t88.5 -9q26 0 37.5 -14t11.5 -33q0 -21 -16 -36.5t-43 -15.5q-79 0 -119 17t-56 54q-31 -45 -74 -58t-106 -13zM156 618l63 6q9 -20 25 -53t33.5 -66.5
t29.5 -54.5l-49 -27q-8 11 -20.5 35t-26.5 50.5t-25 48.5q-11 -26 -23.5 -54.5t-23 -51t-15.5 -30.5l-49 20q5 10 16 32.5t23.5 50t24 53t17.5 41.5zM250 -207q-23 0 -39.5 16t-16.5 39t16.5 39.5t39.5 16.5q22 0 38.5 -16.5t16.5 -39.5t-16.5 -39t-38.5 -16zM103 -207
q-24 0 -40 16t-16 39t16 39.5t40 16.5q23 0 38.5 -16.5t15.5 -39.5t-15.5 -39t-38.5 -16z" />
    <glyph glyph-name="yehVinverted-farsi.fina" unicode="&#x63d;" horiz-adv-x="755" 
d="M29 8q0 35 9.5 81.5t35.5 105.5l87 -32q-17 -43 -25 -78t-8 -65q0 -52 30 -86t82.5 -50.5t118.5 -16.5q76 0 136.5 15t95.5 41.5t35 59.5q0 23 -37 41.5t-107 39.5l24 100q98 -39 160 -54.5t99 -15.5q25 0 37 -14t12 -33q0 -21 -16.5 -36.5t-42.5 -15.5h-40
q1 -9 2.5 -15.5t1.5 -14.5q0 -47 -44 -92.5t-128.5 -75t-206.5 -29.5q-88 0 -158.5 26t-111.5 79t-41 135zM182 486l63 6q9 -20 25 -53t33.5 -66.5t29.5 -54.5l-49 -27q-8 11 -20.5 35t-26.5 50.5t-25 48.5q-11 -26 -23.5 -54.5t-23 -51t-15.5 -30.5l-49 20q5 10 16 32.5
t23.5 50t24 53t17.5 41.5z" />
    <glyph glyph-name="yehTwodotsabove-farsi.init" unicode="&#x63e;" horiz-adv-x="317" 
d="M0 -5l10 99q59 0 92 5t46.5 22.5t13.5 55.5q0 26 -8 62t-21 75.5t-26 77.5l97 32q12 -33 24.5 -75t20.5 -84.5t8 -76.5q0 -74 -28.5 -116t-85.5 -59.5t-143 -17.5zM234 521q-23 0 -39.5 16.5t-16.5 38.5t16.5 39t39.5 17q22 0 38.5 -17t16.5 -39t-16.5 -38.5t-38.5 -16.5
zM86 521q-23 0 -39 16.5t-16 38.5q0 23 16 39.5t39 16.5q22 0 38.5 -16.5t16.5 -39.5q0 -22 -16.5 -38.5t-38.5 -16.5zM203 -207q-23 0 -39.5 16t-16.5 39t16.5 39.5t39.5 16.5q22 0 38.5 -16.5t16.5 -39.5t-16.5 -39t-38.5 -16zM56 -207q-24 0 -40 16t-16 39t16 39.5
t40 16.5q23 0 38.5 -16.5t15.5 -39.5t-15.5 -39t-38.5 -16z" />
    <glyph glyph-name="yehTwodotsabove-farsi.medi" unicode="&#x63e;" horiz-adv-x="384" 
d="M0 -5l10 99q46 0 73 7.5t42.5 29t26 62.5t22.5 109l94 -17q-6 -26 -12.5 -60t-6.5 -59q0 -22 7.5 -38t37.5 -25t100 -9q26 0 37 -14t11 -33q0 -21 -16 -36.5t-42 -15.5q-89 0 -129.5 17t-54.5 54q-33 -45 -81 -58t-119 -13zM283 401q-23 0 -39.5 16.5t-16.5 38.5t16.5 39
t39.5 17q22 0 38.5 -17t16.5 -39t-16.5 -38.5t-38.5 -16.5zM135 401q-23 0 -39 16.5t-16 38.5q0 23 16 39.5t39 16.5q22 0 38.5 -16.5t16.5 -39.5q0 -22 -16.5 -38.5t-38.5 -16.5zM260 -207q-23 0 -39.5 16t-16.5 39t16.5 39.5t39.5 16.5q22 0 38.5 -16.5t16.5 -39.5
t-16.5 -39t-38.5 -16zM113 -207q-24 0 -40 16t-16 39t16 39.5t40 16.5q23 0 38.5 -16.5t15.5 -39.5t-15.5 -39t-38.5 -16z" />
    <glyph glyph-name="yehTwodotsabove-farsi.fina" unicode="&#x63e;" horiz-adv-x="755" 
d="M29 8q0 35 9.5 81.5t35.5 105.5l87 -32q-17 -43 -25 -78t-8 -65q0 -52 30 -86t82.5 -50.5t118.5 -16.5q76 0 136.5 15t95.5 41.5t35 59.5q0 23 -37 41.5t-107 39.5l24 100q98 -39 160 -54.5t99 -15.5q25 0 37 -14t12 -33q0 -21 -16.5 -36.5t-42.5 -15.5h-40
q1 -9 2.5 -15.5t1.5 -14.5q0 -47 -44 -92.5t-128.5 -75t-206.5 -29.5q-88 0 -158.5 26t-111.5 79t-41 135zM294.22 265.521q-22.3223 0 -38.3359 16.0137t-16.0137 37.3652t16.0137 37.8506q16.0137 16.498 38.3359 16.498q21.3516 0 37.3652 -16.498
q16.0137 -16.499 16.0137 -37.8506t-16.0137 -37.3652t-37.3652 -16.0137zM150.583 265.521q-22.3223 0 -37.8506 16.0137t-15.5283 37.3652q0 22.3223 15.5283 38.335q15.5283 16.0137 37.8506 16.0137q21.3506 0 37.3643 -16.0137q16.0137 -16.0127 16.0137 -38.335
q0 -21.3516 -16.0137 -37.3652t-37.3643 -16.0137z" />
    <glyph glyph-name="yehThreedotsabove-farsi.init" unicode="&#x63f;" horiz-adv-x="317" 
d="M0 -5l10 99q59 0 92 5t46.5 22.5t13.5 55.5q0 26 -8 62t-21 75.5t-26 77.5l97 32q12 -33 24.5 -75t20.5 -84.5t8 -76.5q0 -74 -28.5 -116t-85.5 -59.5t-143 -17.5zM162 638q-22 0 -37.5 15.5t-15.5 37.5q0 23 15.5 38.5t37.5 15.5t37.5 -15.5t15.5 -38.5
q0 -22 -15.5 -37.5t-37.5 -15.5zM91 522q-23 0 -38.5 15.5t-15.5 37.5t15.5 37.5t38.5 15.5q22 0 37.5 -15.5t15.5 -37.5t-15.5 -37.5t-37.5 -15.5zM233 522q-23 0 -38.5 15.5t-15.5 37.5t15.5 37.5t38.5 15.5q22 0 37 -15.5t15 -37.5t-15 -37.5t-37 -15.5zM203 -207
q-23 0 -39.5 16t-16.5 39t16.5 39.5t39.5 16.5q22 0 38.5 -16.5t16.5 -39.5t-16.5 -39t-38.5 -16zM56 -207q-24 0 -40 16t-16 39t16 39.5t40 16.5q23 0 38.5 -16.5t15.5 -39.5t-15.5 -39t-38.5 -16z" />
    <glyph glyph-name="yehThreedotsabove-farsi.medi" unicode="&#x63f;" horiz-adv-x="384" 
d="M0 -5l10 99q46 0 73 7.5t42.5 29t26 62.5t22.5 109l94 -17q-6 -26 -12.5 -60t-6.5 -59q0 -22 7.5 -38t37.5 -25t100 -9q26 0 37 -14t11 -33q0 -21 -16 -36.5t-42 -15.5q-89 0 -129.5 17t-54.5 54q-33 -45 -81 -58t-119 -13zM211 518q-22 0 -37.5 15.5t-15.5 37.5
q0 23 15.5 38.5t37.5 15.5t37.5 -15.5t15.5 -38.5q0 -22 -15.5 -37.5t-37.5 -15.5zM140 402q-23 0 -38.5 15.5t-15.5 37.5t15.5 37.5t38.5 15.5q22 0 37.5 -15.5t15.5 -37.5t-15.5 -37.5t-37.5 -15.5zM282 402q-23 0 -38.5 15.5t-15.5 37.5t15.5 37.5t38.5 15.5
q22 0 37 -15.5t15 -37.5t-15 -37.5t-37 -15.5zM260 -207q-23 0 -39.5 16t-16.5 39t16.5 39.5t39.5 16.5q22 0 38.5 -16.5t16.5 -39.5t-16.5 -39t-38.5 -16zM113 -207q-24 0 -40 16t-16 39t16 39.5t40 16.5q23 0 38.5 -16.5t15.5 -39.5t-15.5 -39t-38.5 -16z" />
    <glyph glyph-name="yehThreedotsabove-farsi.fina" unicode="&#x63f;" horiz-adv-x="755" 
d="M29 8q0 35 9.5 81.5t35.5 105.5l87 -32q-17 -43 -25 -78t-8 -65q0 -52 30 -86t82.5 -50.5t118.5 -16.5q76 0 136.5 15t95.5 41.5t35 59.5q0 23 -37 41.5t-107 39.5l24 100q98 -39 160 -54.5t99 -15.5q25 0 37 -14t12 -33q0 -21 -16.5 -36.5t-42.5 -15.5h-40
q1 -9 2.5 -15.5t1.5 -14.5q0 -47 -44 -92.5t-128.5 -75t-206.5 -29.5q-88 0 -158.5 26t-111.5 79t-41 135zM224 385q-22 0 -37.5 15.5t-15.5 37.5q0 23 15.5 38.5t37.5 15.5t37.5 -15.5t15.5 -38.5q0 -22 -15.5 -37.5t-37.5 -15.5zM153 269q-23 0 -38.5 15.5t-15.5 37.5
t15.5 37.5t38.5 15.5q22 0 37.5 -15.5t15.5 -37.5t-15.5 -37.5t-37.5 -15.5zM295 269q-23 0 -38.5 15.5t-15.5 37.5t15.5 37.5t38.5 15.5q22 0 37 -15.5t15 -37.5t-15 -37.5t-37 -15.5z" />
    <glyph glyph-name="uniFE71" unicode="&#x64b;" horiz-adv-x="306" 
d="M0 -5l10 99h305q26 0 37.5 -14t11.5 -33q0 -21 -16 -36.5t-43 -15.5h-305zM34 697v61l228 67v-62zM34 592v61l228 67v-62z" />
    <glyph glyph-name="uniFE77" unicode="&#x64e;" horiz-adv-x="306" 
d="M0 -5l10 99h305q26 0 37.5 -14t11.5 -33q0 -21 -16 -36.5t-43 -15.5h-305zM26 592v61l228 67v-62z" />
    <glyph glyph-name="uniFE79" unicode="&#x64f;" horiz-adv-x="306" 
d="M0 -5l10 99h305q26 0 37.5 -14t11.5 -33q0 -21 -16 -36.5t-43 -15.5h-305zM7 589l-10 52q39 2 70.5 9t55.5 18q-24 13 -39 33.5t-15 49.5q0 36 26 62.5t67 26.5q42 0 63.5 -28.5t21.5 -63.5q0 -46 -30.5 -80t-84.5 -55t-125 -24zM126 750q0 -16 11.5 -30.5t29.5 -23.5
q25 23 25 49q0 17 -8 28.5t-24 11.5q-14 0 -24 -10t-10 -25z" />
    <glyph glyph-name="uniFE7B" unicode="&#x650;" horiz-adv-x="306" 
d="M0 -5l10 99h305q26 0 37.5 -14t11.5 -33q0 -21 -16 -36.5t-43 -15.5h-305zM56 -175v61l228 67v-62z" />
    <glyph glyph-name="uniFE7D" unicode="&#x651;" horiz-adv-x="306" 
d="M0 -5l10 99h305q26 0 37.5 -14t11.5 -33q0 -21 -16 -36.5t-43 -15.5h-305zM72 585q-39 0 -52 26t-13 57q0 11 1.5 23.5t4.5 28.5l53 14q-6 -34 -6 -57q0 -34 23 -34q14 0 23 15t11 60v30l50 18v-61q0 -13 5 -22.5t22 -9.5t22.5 10t5.5 26q0 17 -4 34.5t-11 34.5l48 14
q10 -20 16.5 -44t6.5 -44q0 -33 -18.5 -59.5t-58.5 -26.5q-31 0 -51 18q-9 -23 -29.5 -37t-48.5 -14z" />
    <glyph glyph-name="uniFE7F" unicode="&#x652;" horiz-adv-x="306" 
d="M0 -5l10 99h305q26 0 37.5 -14t11.5 -33q0 -21 -16 -36.5t-43 -15.5h-305zM146 612q-45 0 -67.5 27t-22.5 64q0 43 26.5 75.5t68.5 32.5q38 0 62.5 -31.5t24.5 -71.5t-25.5 -68t-66.5 -28zM145 668q17 0 29.5 11t12.5 29q0 19 -13 31.5t-28 12.5q-19 0 -29.5 -13
t-10.5 -30q0 -18 11 -29.5t28 -11.5z" />
    <glyph glyph-name="dotlessbeh-ar.init" unicode="&#x66e;" horiz-adv-x="283" 
d="M0 -5l10 99q70 0 99 15t29 68q0 26 -8 62t-20.5 75.5t-26.5 77.5l98 32q13 -33 24.5 -75t19.5 -84.5t8 -76.5q0 -74 -27.5 -116t-79.5 -59.5t-126 -17.5z" />
    <glyph glyph-name="dotlessbeh-ar.medi" unicode="&#x66e;" horiz-adv-x="355" 
d="M0 -5l10 99q41 0 64.5 7.5t36.5 29t22 62.5t21 109l94 -17q-6 -26 -12.5 -60t-6.5 -59q0 -22 9 -38t38.5 -25t88.5 -9q26 0 37.5 -14t11.5 -33q0 -21 -16 -36.5t-43 -15.5q-79 0 -119 17t-56 54q-31 -45 -74 -58t-106 -13z" />
    <glyph glyph-name="dotlessbeh-ar.fina" unicode="&#x66e;" horiz-adv-x="1107" 
d="M400 -21q-189 0 -279 51.5t-90 157.5q0 40 9.5 84t20.5 81l89 -21q-6 -25 -13 -57.5t-7 -57.5q0 -48 26.5 -79t91 -45.5t178.5 -14.5q64 0 131.5 7.5t133 27t124 56t104.5 93.5l77 -41q-14 -42 -14 -62q0 -17 11 -32t40.5 -24t83.5 -9q26 0 37.5 -14t11.5 -33
q0 -21 -16 -36.5t-43 -15.5q-88 0 -145 27.5t-64 83.5q-81 -64 -212 -95.5t-286 -31.5z" />
    <glyph glyph-name="dotlessqaf-ar.init" unicode="&#x66f;" horiz-adv-x="464" 
d="M0 -5l10 99q83 0 145 3t93 16q24 10 40 24.5t25 38.5q-19 -6 -39.5 -9t-41.5 -3q-77 0 -120 35t-43 99q0 40 13 80t36.5 73t56.5 53t74 20q58 0 96 -36.5t57 -96t19 -127.5q0 -147 -99 -213q-46 -35 -127 -45.5t-195 -10.5zM166 320q0 -28 19 -44t63 -16q41 0 77 11
q0 66 -22.5 110.5t-61.5 44.5q-21 0 -38 -15.5t-27 -40t-10 -50.5z" />
    <glyph glyph-name="dotlessqaf-ar.medi" unicode="&#x66f;" horiz-adv-x="505" 
d="M0 -5l10 99q34 0 67.5 1t62.5 5q-24 23 -44 57t-20 81q0 56 26.5 100t69 69.5t89.5 25.5q52 0 91 -27t60.5 -70t21.5 -90q0 -45 -17 -81.5t-46 -64.5q37 -3 75 -4.5t69 -1.5q25 0 37 -14t12 -33q0 -21 -16 -36.5t-43 -15.5q-65 0 -132.5 9.5t-118.5 25.5l-22 -8
q-44 -14 -106 -20.5t-126 -6.5zM175 234q0 -35 21 -62.5t50 -45.5q39 17 64.5 45.5t25.5 66.5q0 21 -10 43.5t-28 38.5t-40 16t-41 -14.5t-30.5 -38t-11.5 -49.5z" />
    <glyph glyph-name="dotlessqaf-ar.fina" unicode="&#x66f;" horiz-adv-x="822" 
d="M333 -271q-83 0 -152 24.5t-110.5 77.5t-41.5 139q0 26 9 76.5t48 125.5l87 -38q-23 -50 -32.5 -82.5t-9.5 -63.5q0 -57 29.5 -91.5t80 -50.5t114.5 -16q114 0 185.5 39.5t91.5 97.5q4 13 8 28h-59q-82 0 -132.5 32.5t-52.5 103.5q-1 40 13 78.5t39 70t57.5 50t68.5 18.5
q74 0 123 -63t53 -191h82q26 0 37.5 -14t11.5 -33q0 -21 -16.5 -36.5t-42.5 -15.5h-83q-6 -23 -14 -47t-18 -45q-49 -93 -147 -133.5t-227 -40.5zM493 149q0 -32 31 -45t111 -10h16q-1 76 -24.5 116.5t-58.5 40.5q-20 0 -37.5 -15t-27.5 -38.5t-10 -48.5z" />
    <glyph glyph-name="alefWavyhamzaabove-ar.fina" unicode="&#x672;" horiz-adv-x="297" 
d="M297 -5q-85 0 -129.5 18.5t-62 57t-19.5 99.5l-18 479h99l19 -437q2 -48 9.5 -73.5t32.5 -35t79 -9.5q25 0 37 -14t12 -33q0 -21 -16.5 -36.5t-42.5 -15.5zM-25 732l-45 28q12 28 33.5 40.5t39.5 12.5q24 0 41.5 -11t34.5 -11h9q-20 13 -34 34.5t-14 47.5q0 45 31 69
t73 24q26 0 50 -8l-8 -53q-10 2 -19 4t-20 2q-49 0 -49 -36q0 -19 11.5 -33t27 -22.5t27.5 -10.5q17 5 31 11t27 11l17 -51q-11 -6 -39 -17t-61 -20.5t-56 -9.5q-27 0 -45 11t-32 11q-10 0 -17 -6t-14 -17z" />
    <glyph glyph-name="alefWavyhamzabelow-ar.fina" unicode="&#x673;" horiz-adv-x="299" 
d="M299 -5q-85 0 -129.5 18.5t-62 57t-19.5 99.5l-20 549h99l21 -507q2 -48 9.5 -73.5t32.5 -35t79 -9.5q25 0 37 -14t12 -33q0 -21 -16.5 -36.5t-42.5 -15.5zM2 -270l-41 25q10 26 30 37t36 11q22 0 38 -10t31 -10h10q-18 12 -31.5 31.5t-13.5 43.5q0 41 28.5 63t66.5 22
q11 0 23 -2t22 -5l-7 -50q-9 2 -17.5 4t-18.5 2q-44 0 -44 -32q0 -25 21.5 -41t38.5 -19q15 5 28 10t25 10l15 -47q-9 -5 -35 -15t-56 -18.5t-51 -8.5q-24 0 -41 10t-29 10q-10 0 -15.5 -5.5t-12.5 -15.5z" />
    <glyph glyph-name="highhamzaAlef-ar.fina" unicode="&#x675;" horiz-adv-x="451" 
d="M451 -5h-154q-83 0 -127.5 18.5t-62 57t-19.5 99.5l-20 549h99l21 -507q2 -48 9.5 -73.5t32 -35t76.5 -9.5h155q26 0 37.5 -14t11.5 -33q0 -21 -16 -36.5t-43 -15.5zM233 578l-13 58q29 6 46 10q-18 13 -31.5 34t-13.5 46q0 47 32.5 70t72.5 23q25 0 49 -8l-8 -53
q-10 2 -19.5 4t-20.5 2q-48 0 -48 -35q0 -25 19 -42t37 -22q39 11 68 22l17 -55q-37 -14 -90 -29t-97 -25z" />
    <glyph glyph-name="highhamzaWaw-ar.fina" unicode="&#x676;" horiz-adv-x="487" 
d="M58 -230l-22 99q94 12 160.5 38t95.5 88h-55q-51 0 -91 13.5t-63.5 42.5t-23.5 78q0 57 23.5 109t64 85t91.5 33q75 0 123.5 -66.5t48.5 -185.5v-10h87q26 0 37.5 -14t11.5 -33q0 -21 -16 -36.5t-43 -15.5h-92q-29 -99 -115 -155.5t-222 -69.5zM156 147q0 -30 30 -43.5
t113 -9.5h15v12q0 65 -23 107t-60 42q-21 0 -38 -15.5t-27 -40.5t-10 -52zM302 399l-13 59q30 6 48 11q-19 13 -32.5 34t-13.5 46q0 47 32.5 70t72.5 23q25 0 49 -8l-8 -56q-10 2 -19.5 4t-20.5 2q-20 0 -32.5 -9t-12.5 -25q0 -24 19 -40.5t37 -21.5q37 10 64 21l18 -55
q-38 -14 -91 -29.5t-97 -25.5z" />
    <glyph glyph-name="uHamzaabove-ar.fina" unicode="&#x677;" horiz-adv-x="529" 
d="M100 -230l-22 99q94 12 160.5 38t95.5 88h-55q-51 0 -91 13.5t-63.5 42.5t-23.5 78q0 57 23.5 109t64 85t91.5 33q75 0 123.5 -66.5t48.5 -185.5v-10h87q26 0 37.5 -14t11.5 -33q0 -21 -16 -36.5t-43 -15.5h-92q-29 -99 -115 -155.5t-222 -69.5zM198 147q0 -30 30 -43.5
t113 -9.5h15v12q0 65 -23 107t-60 42q-21 0 -38 -15.5t-27 -40.5t-10 -52zM351 399l-13 59q30 6 48 11q-19 13 -32.5 34t-13.5 46q0 47 32.5 70t72.5 23q25 0 49 -8l-8 -56q-10 2 -19.5 4t-20.5 2q-20 0 -32.5 -9t-12.5 -25q0 -24 19 -40.5t37 -21.5q37 10 64 21l18 -55
q-38 -14 -91 -29.5t-97 -25.5zM37 410l-10 52q39 2 70.5 9t55.5 18q-24 13 -39 33.5t-15 49.5q0 36 26 62.5t67 26.5q42 0 63.5 -28.5t21.5 -63.5q0 -46 -30.5 -80t-84.5 -55t-125 -24zM156 571q0 -16 11.5 -30.5t29.5 -23.5q25 23 25 49q0 17 -8 28.5t-24 11.5
q-14 0 -24 -10t-10 -25z" />
    <glyph glyph-name="highhamzaYeh-ar.init" unicode="&#x678;" horiz-adv-x="350" 
d="M0 -5l10 99q70 0 99 15t29 68q0 26 -8 62t-20.5 75.5t-26.5 77.5l98 32q13 -33 24.5 -75t19.5 -84.5t8 -76.5q0 -74 -27.5 -116t-79.5 -59.5t-126 -17.5zM168 578l-13 58q29 6 46 10q-18 13 -31.5 34t-13.5 46q0 47 32.5 70t72.5 23q25 0 49 -8l-8 -53q-10 2 -19.5 4
t-20.5 2q-48 0 -48 -35q0 -25 19 -42t37 -22q39 11 68 22l17 -55q-37 -14 -90 -29t-97 -25z" />
    <glyph glyph-name="highhamzaYeh-ar.medi" unicode="&#x678;" horiz-adv-x="355" 
d="M0 -5l10 99q41 0 64.5 7.5t36.5 29t22 62.5t21 109l94 -17q-6 -26 -12.5 -60t-6.5 -59q0 -22 9 -38t38.5 -25t88.5 -9q26 0 37.5 -14t11.5 -33q0 -21 -16 -36.5t-43 -15.5q-79 0 -119 17t-56 54q-31 -45 -74 -58t-106 -13zM164 409l-13 58q29 6 46 10q-18 13 -31.5 34
t-13.5 46q0 47 32.5 70t72.5 23q25 0 49 -8l-8 -53q-10 2 -19.5 4t-20.5 2q-48 0 -48 -35q0 -25 19 -42t37 -22q39 11 68 22l17 -55q-37 -14 -90 -29t-97 -25z" />
    <glyph glyph-name="highhamzaYeh-ar.fina" unicode="&#x678;" horiz-adv-x="755" 
d="M29 8q0 35 9.5 81.5t35.5 105.5l87 -32q-17 -43 -25 -78t-8 -65q0 -52 30 -86t82.5 -50.5t118.5 -16.5q76 0 136.5 15t95.5 41.5t35 59.5q0 23 -37 41.5t-107 39.5l24 100q98 -39 160 -54.5t99 -15.5q25 0 37 -14t12 -33q0 -21 -16.5 -36.5t-42.5 -15.5h-40
q1 -9 2.5 -15.5t1.5 -14.5q0 -47 -44 -92.5t-128.5 -75t-206.5 -29.5q-88 0 -158.5 26t-111.5 79t-41 135zM518 208l-13 58q29 6 46 10q-18 13 -31.5 34t-13.5 46q0 47 32.5 70t72.5 23q25 0 49 -8l-8 -53q-10 2 -19.5 4t-20.5 2q-48 0 -48 -35q0 -25 19 -42t37 -22
q39 11 68 22l17 -55q-37 -14 -90 -29t-97 -25z" />
    <glyph glyph-name="tehRing-ar.init" unicode="&#x67c;" horiz-adv-x="317" 
d="M0 -5l10 99q59 0 92 5t46.5 22.5t13.5 55.5q0 26 -8 62t-21 75.5t-26 77.5l97 32q12 -33 24.5 -75t20.5 -84.5t8 -76.5q0 -74 -28.5 -116t-85.5 -59.5t-143 -17.5zM234 521q-23 0 -39.5 16.5t-16.5 38.5t16.5 39t39.5 17q22 0 38.5 -17t16.5 -39t-16.5 -38.5t-38.5 -16.5
zM86 521q-23 0 -39 16.5t-16 38.5q0 23 16 39.5t39 16.5q22 0 38.5 -16.5t16.5 -39.5q0 -22 -16.5 -38.5t-38.5 -16.5zM110 -128q-39 0 -65.5 27.5t-26.5 64.5q0 38 26.5 65.5t65.5 27.5q38 0 65 -27.5t27 -65.5q0 -37 -27 -64.5t-65 -27.5zM110 -73q16 0 28 10.5t12 26.5
q0 17 -12 28t-28 11t-28 -11t-12 -28q0 -16 12 -26.5t28 -10.5z" />
    <glyph glyph-name="tehRing-ar.medi" unicode="&#x67c;" horiz-adv-x="355" 
d="M0 -5l10 99q41 0 64.5 7.5t36.5 29t22 62.5t21 109l94 -17q-6 -26 -12.5 -60t-6.5 -59q0 -22 9 -38t38.5 -25t88.5 -9q26 0 37.5 -14t11.5 -33q0 -21 -16 -36.5t-43 -15.5q-79 0 -119 17t-56 54q-31 -45 -74 -58t-106 -13zM107 -126q-39 0 -65.5 27.5t-26.5 64.5
q0 38 26.5 65.5t65.5 27.5q38 0 65 -27.5t27 -65.5q0 -37 -27 -64.5t-65 -27.5zM107 -71q16 0 28 10.5t12 26.5q0 17 -12 28t-28 11t-28 -11t-12 -28q0 -16 12 -26.5t28 -10.5zM270 401q-23 0 -39.5 16.5t-16.5 38.5t16.5 39t39.5 17q22 0 38.5 -17t16.5 -39t-16.5 -38.5
t-38.5 -16.5zM122 401q-23 0 -39 16.5t-16 38.5q0 23 16 39.5t39 16.5q22 0 38.5 -16.5t16.5 -39.5q0 -22 -16.5 -38.5t-38.5 -16.5z" />
    <glyph glyph-name="tehRing-ar.fina" unicode="&#x67c;" horiz-adv-x="1107" 
d="M400 -21q-189 0 -279 51.5t-90 157.5q0 40 9.5 84t20.5 81l89 -21q-6 -25 -13 -57.5t-7 -57.5q0 -48 26.5 -79t91 -45.5t178.5 -14.5q64 0 131.5 7.5t133 27t124 56t104.5 93.5l77 -41q-14 -42 -14 -62q0 -17 11 -32t40.5 -24t83.5 -9q26 0 37.5 -14t11.5 -33
q0 -21 -16 -36.5t-43 -15.5q-88 0 -145 27.5t-64 83.5q-81 -64 -212 -95.5t-286 -31.5zM573 411q-23 0 -39.5 16.5t-16.5 38.5t16.5 39t39.5 17q22 0 38.5 -17t16.5 -39t-16.5 -38.5t-38.5 -16.5zM425 411q-23 0 -39 16.5t-16 38.5q0 23 16 39.5t39 16.5q22 0 38.5 -16.5
t16.5 -39.5q0 -22 -16.5 -38.5t-38.5 -16.5zM490 -152q-39 0 -65.5 27.5t-26.5 64.5q0 38 26.5 65.5t65.5 27.5q38 0 65 -27.5t27 -65.5q0 -37 -27 -64.5t-65 -27.5zM490 -97q16 0 28 10.5t12 26.5q0 17 -12 28t-28 11t-28 -11t-12 -28q0 -16 12 -26.5t28 -10.5z" />
    <glyph glyph-name="tehThreedotsdown-ar.init" unicode="&#x67d;" horiz-adv-x="317" 
d="M0 -5l10 99q59 0 92 5t46.5 22.5t13.5 55.5q0 26 -8 62t-21 75.5t-26 77.5l97 32q12 -33 24.5 -75t20.5 -84.5t8 -76.5q0 -74 -28.5 -116t-85.5 -59.5t-143 -17.5zM89 638q-22 0 -38 15t-16 38q0 22 16 38t38 16t37.5 -16t15.5 -38q0 -23 -15.5 -38t-37.5 -15zM231 638
q-22 0 -38 15t-16 38q0 22 16 38t38 16t37.5 -16t15.5 -38q0 -23 -15.5 -38t-37.5 -15zM159 521q-22 0 -37.5 15.5t-15.5 37.5t15.5 38t37.5 16t37.5 -16t15.5 -38t-15.5 -37.5t-37.5 -15.5z" />
    <glyph glyph-name="tehThreedotsdown-ar.medi" unicode="&#x67d;" horiz-adv-x="384" 
d="M0 -5l10 99q46 0 73 7.5t42.5 29t26 62.5t22.5 109l94 -17q-6 -26 -12.5 -60t-6.5 -59q0 -22 7.5 -38t37.5 -25t100 -9q26 0 37 -14t11 -33q0 -21 -16 -36.5t-42 -15.5q-89 0 -129.5 17t-54.5 54q-33 -45 -81 -58t-119 -13zM139 518q-22 0 -38 15t-16 38q0 22 16 38
t38 16t37.5 -16t15.5 -38q0 -23 -15.5 -38t-37.5 -15zM281 518q-22 0 -38 15t-16 38q0 22 16 38t38 16t37.5 -16t15.5 -38q0 -23 -15.5 -38t-37.5 -15zM209 401q-22 0 -37.5 15.5t-15.5 37.5t15.5 38t37.5 16t37.5 -16t15.5 -38t-15.5 -37.5t-37.5 -15.5z" />
    <glyph glyph-name="tehThreedotsdown-ar.fina" unicode="&#x67d;" horiz-adv-x="1107" 
d="M400 -21q-189 0 -279 51.5t-90 157.5q0 40 9.5 84t20.5 81l89 -21q-6 -25 -13 -57.5t-7 -57.5q0 -48 26.5 -79t91 -45.5t178.5 -14.5q64 0 131.5 7.5t133 27t124 56t104.5 93.5l77 -41q-14 -42 -14 -62q0 -17 11 -32t40.5 -24t83.5 -9q26 0 37.5 -14t11.5 -33
q0 -21 -16 -36.5t-43 -15.5q-88 0 -145 27.5t-64 83.5q-81 -64 -212 -95.5t-286 -31.5zM429 528q-22 0 -38 15t-16 38q0 22 16 38t38 16t37.5 -16t15.5 -38q0 -23 -15.5 -38t-37.5 -15zM571 528q-22 0 -38 15t-16 38q0 22 16 38t38 16t37.5 -16t15.5 -38q0 -23 -15.5 -38
t-37.5 -15zM499 411q-22 0 -37.5 15.5t-15.5 37.5t15.5 38t37.5 16t37.5 -16t15.5 -38t-15.5 -37.5t-37.5 -15.5z" />
    <glyph glyph-name="hahHamzaabove-ar.init" unicode="&#x681;" horiz-adv-x="601" 
d="M0 -5l9 99q105 0 203 28.5t178 83.5q-40 32 -96.5 51.5t-123.5 19.5q-46 0 -95 -11l-17 94q28 8 56 12t54 4q66 0 117 -18.5t92 -42t78 -42t75 -18.5h26l9 -90q-52 -1 -94.5 -18.5t-85 -42.5t-95 -50t-122.5 -42t-168 -17zM72 469l-13 59q30 6 48 11q-19 13 -32.5 34
t-13.5 46q0 47 32.5 70t72.5 23q25 0 49 -8l-8 -56q-10 2 -19.5 4t-20.5 2q-20 0 -32.5 -9t-12.5 -25q0 -24 19 -40.5t37 -21.5q37 10 64 21l18 -55q-38 -14 -91 -29.5t-97 -25.5z" />
    <glyph glyph-name="hahHamzaabove-ar.medi" unicode="&#x681;" horiz-adv-x="642" 
d="M0 -5l9 99q105 0 203 28.5t178 83.5q-40 32 -96.5 51.5t-123.5 19.5q-46 0 -95 -11l-17 94q28 8 56 12t54 4q66 0 117 -18.5t92 -42t78 -42t75 -18.5h26l9 -90q-19 0 -37 -3t-34 -8q22 -36 58.5 -48t99.5 -12q26 0 37.5 -14t11.5 -33q0 -21 -16 -36.5t-43 -15.5
q-54 0 -97.5 9.5t-75.5 37t-50 80.5q-36 -19 -75 -41t-87.5 -41.5t-111 -32t-145.5 -12.5zM65 469l-13 59q30 6 48 11q-19 13 -32.5 34t-13.5 46q0 47 32.5 70t72.5 23q25 0 49 -8l-8 -56q-10 2 -19.5 4t-20.5 2q-20 0 -32.5 -9t-12.5 -25q0 -24 19 -40.5t37 -21.5
q37 10 64 21l18 -55q-38 -14 -91 -29.5t-97 -25.5z" />
    <glyph glyph-name="hahHamzaabove-ar.fina" unicode="&#x681;" horiz-adv-x="676" 
d="M365 -271q-101 0 -181 28.5t-126 85.5t-46 141q0 87 44.5 164t125.5 133t192 82q-46 16 -100.5 31t-122.5 15q-31 0 -56 -5t-47 -10l-16 92q26 10 59 16.5t67 6.5q60 0 106.5 -13t90 -30t93.5 -30.5t117 -13.5h19l5 -99q-47 -2 -100 -12q8 -77 25.5 -121t43.5 -64.5
t58.5 -26t69.5 -5.5q26 0 37 -14t11 -33q0 -21 -15.5 -36.5t-42.5 -15.5q-46 0 -90.5 7.5t-81 36t-60.5 88.5t-30 165q-57 -18 -111 -44.5t-97.5 -63t-69 -82.5t-25.5 -102q0 -61 36.5 -99t96.5 -55.5t132 -17.5q102 0 208 43l32 -84q-63 -30 -127.5 -44t-123.5 -14z
M222 620l-13 59q30 6 48 11q-19 13 -32.5 34t-13.5 46q0 47 32.5 70t72.5 23q25 0 49 -8l-8 -56q-10 2 -19.5 4t-20.5 2q-20 0 -32.5 -9t-12.5 -25q0 -24 19 -40.5t37 -21.5q37 10 64 21l18 -55q-38 -14 -91 -29.5t-97 -25.5z" />
    <glyph glyph-name="hahTwodotsverticalabove-ar.init" unicode="&#x682;" horiz-adv-x="601" 
d="M0 -5l9 99q105 0 203 28.5t178 83.5q-40 32 -96.5 51.5t-123.5 19.5q-46 0 -95 -11l-17 94q28 8 56 12t54 4q66 0 117 -18.5t92 -42t78 -42t75 -18.5h26l9 -90q-52 -1 -94.5 -18.5t-85 -42.5t-95 -50t-122.5 -42t-168 -17zM168 616q-22 0 -38 15.5t-16 37.5t16 38t38 16
t37.5 -16t15.5 -38t-15.5 -37.5t-37.5 -15.5zM169 477q-23 0 -38.5 15t-15.5 37t15.5 38t38.5 16q22 0 37.5 -16t15.5 -38t-15.5 -37t-37.5 -15z" />
    <glyph glyph-name="hahTwodotsverticalabove-ar.medi" unicode="&#x682;" horiz-adv-x="642" 
d="M0 -5l9 99q105 0 203 28.5t178 83.5q-40 32 -96.5 51.5t-123.5 19.5q-46 0 -95 -11l-17 94q28 8 56 12t54 4q66 0 117 -18.5t92 -42t78 -42t75 -18.5h26l9 -90q-19 0 -37 -3t-34 -8q22 -36 58.5 -48t99.5 -12q26 0 37.5 -14t11.5 -33q0 -21 -16 -36.5t-43 -15.5
q-54 0 -97.5 9.5t-75.5 37t-50 80.5q-36 -19 -75 -41t-87.5 -41.5t-111 -32t-145.5 -12.5zM161 619q-22 0 -38 15.5t-16 37.5t16 38t38 16t37.5 -16t15.5 -38t-15.5 -37.5t-37.5 -15.5zM162 480q-23 0 -38.5 15t-15.5 37t15.5 38t38.5 16q22 0 37.5 -16t15.5 -38t-15.5 -37
t-37.5 -15z" />
    <glyph glyph-name="hahTwodotsverticalabove-ar.fina" unicode="&#x682;" horiz-adv-x="676" 
d="M365 -271q-101 0 -181 28.5t-126 85.5t-46 141q0 87 44.5 164t125.5 133t192 82q-46 16 -100.5 31t-122.5 15q-31 0 -56 -5t-47 -10l-16 92q26 10 59 16.5t67 6.5q60 0 106.5 -13t90 -30t93.5 -30.5t117 -13.5h19l5 -99q-47 -2 -100 -12q8 -77 25.5 -121t43.5 -64.5
t58.5 -26t69.5 -5.5q26 0 37 -14t11 -33q0 -21 -15.5 -36.5t-42.5 -15.5q-46 0 -90.5 7.5t-81 36t-60.5 88.5t-30 165q-57 -18 -111 -44.5t-97.5 -63t-69 -82.5t-25.5 -102q0 -61 36.5 -99t96.5 -55.5t132 -17.5q102 0 208 43l32 -84q-63 -30 -127.5 -44t-123.5 -14z
M317 749q-22 0 -38 15.5t-16 37.5t16 38t38 16t37.5 -16t15.5 -38t-15.5 -37.5t-37.5 -15.5zM318 610q-23 0 -38.5 15t-15.5 37t15.5 38t38.5 16q22 0 37.5 -16t15.5 -38t-15.5 -37t-37.5 -15z" />
    <glyph glyph-name="hahThreedotsabove-ar.init" unicode="&#x685;" horiz-adv-x="601" 
d="M0 -5l9 99q105 0 203 28.5t178 83.5q-40 32 -96.5 51.5t-123.5 19.5q-46 0 -95 -11l-17 94q28 8 56 12t54 4q66 0 117 -18.5t92 -42t78 -42t75 -18.5h26l9 -90q-52 -1 -94.5 -18.5t-85 -42.5t-95 -50t-122.5 -42t-168 -17zM175 593q-22 0 -37.5 15.5t-15.5 37.5
q0 23 15.5 38.5t37.5 15.5t37.5 -15.5t15.5 -38.5q0 -22 -15.5 -37.5t-37.5 -15.5zM104 477q-23 0 -38.5 15.5t-15.5 37.5t15.5 37.5t38.5 15.5q22 0 37.5 -15.5t15.5 -37.5t-15.5 -37.5t-37.5 -15.5zM246 477q-23 0 -38.5 15.5t-15.5 37.5t15.5 37.5t38.5 15.5
q22 0 37 -15.5t15 -37.5t-15 -37.5t-37 -15.5z" />
    <glyph glyph-name="hahThreedotsabove-ar.medi" unicode="&#x685;" horiz-adv-x="642" 
d="M0 -5l9 99q105 0 203 28.5t178 83.5q-40 32 -96.5 51.5t-123.5 19.5q-46 0 -95 -11l-17 94q28 8 56 12t54 4q66 0 117 -18.5t92 -42t78 -42t75 -18.5h26l9 -90q-19 0 -37 -3t-34 -8q22 -36 58.5 -48t99.5 -12q26 0 37.5 -14t11.5 -33q0 -21 -16 -36.5t-43 -15.5
q-54 0 -97.5 9.5t-75.5 37t-50 80.5q-36 -19 -75 -41t-87.5 -41.5t-111 -32t-145.5 -12.5zM168 593q-22 0 -37.5 15.5t-15.5 37.5q0 23 15.5 38.5t37.5 15.5t37.5 -15.5t15.5 -38.5q0 -22 -15.5 -37.5t-37.5 -15.5zM97 477q-23 0 -38.5 15.5t-15.5 37.5t15.5 37.5t38.5 15.5
q22 0 37.5 -15.5t15.5 -37.5t-15.5 -37.5t-37.5 -15.5zM239 477q-23 0 -38.5 15.5t-15.5 37.5t15.5 37.5t38.5 15.5q22 0 37 -15.5t15 -37.5t-15 -37.5t-37 -15.5z" />
    <glyph glyph-name="hahThreedotsabove-ar.fina" unicode="&#x685;" horiz-adv-x="676" 
d="M365 -271q-101 0 -181 28.5t-126 85.5t-46 141q0 87 44.5 164t125.5 133t192 82q-46 16 -100.5 31t-122.5 15q-31 0 -56 -5t-47 -10l-16 92q26 10 59 16.5t67 6.5q60 0 106.5 -13t90 -30t93.5 -30.5t117 -13.5h19l5 -99q-47 -2 -100 -12q8 -77 25.5 -121t43.5 -64.5
t58.5 -26t69.5 -5.5q26 0 37 -14t11 -33q0 -21 -15.5 -36.5t-42.5 -15.5q-46 0 -90.5 7.5t-81 36t-60.5 88.5t-30 165q-57 -18 -111 -44.5t-97.5 -63t-69 -82.5t-25.5 -102q0 -61 36.5 -99t96.5 -55.5t132 -17.5q102 0 208 43l32 -84q-63 -30 -127.5 -44t-123.5 -14z
M318 714q-22 0 -37.5 15.5t-15.5 37.5q0 23 15.5 38.5t37.5 15.5t37.5 -15.5t15.5 -38.5q0 -22 -15.5 -37.5t-37.5 -15.5zM247 598q-23 0 -38.5 15.5t-15.5 37.5t15.5 37.5t38.5 15.5q22 0 37.5 -15.5t15.5 -37.5t-15.5 -37.5t-37.5 -15.5zM389 598q-23 0 -38.5 15.5
t-15.5 37.5t15.5 37.5t38.5 15.5q22 0 37 -15.5t15 -37.5t-15 -37.5t-37 -15.5z" />
    <glyph glyph-name="dalRing-ar.fina" unicode="&#x689;" horiz-adv-x="544" 
d="M216 94q72 0 100.5 21t28.5 56q0 27 -19.5 70t-49.5 92t-61 95l83 55q60 -89 97 -164.5t53 -132.5q12 -40 29.5 -60t37.5 -26t38 -6q25 0 37 -14t12 -33q0 -21 -16 -36.5t-43 -15.5q-42 0 -78 16.5t-58 54.5q-22 -31 -66 -51.5t-119 -20.5q-52 0 -102 13t-85 37l43 86
q25 -15 60.5 -25.5t77.5 -10.5zM217 -137q-39 0 -65.5 27.5t-26.5 64.5q0 38 26.5 65.5t65.5 27.5q38 0 65 -27.5t27 -65.5q0 -37 -27 -64.5t-65 -27.5zM217 -82q16 0 28 10.5t12 26.5q0 17 -12 28t-28 11t-28 -11t-12 -28q0 -16 12 -26.5t28 -10.5z" />
    <glyph glyph-name="dalDotbelow-ar.fina" unicode="&#x68a;" horiz-adv-x="544" 
d="M216 94q72 0 100.5 21t28.5 56q0 27 -19.5 70t-49.5 92t-61 95l83 55q60 -89 97 -164.5t53 -132.5q12 -40 29.5 -60t37.5 -26t38 -6q25 0 37 -14t12 -33q0 -21 -16 -36.5t-43 -15.5q-42 0 -78 16.5t-58 54.5q-22 -31 -66 -51.5t-119 -20.5q-52 0 -102 13t-85 37l43 86
q25 -15 60.5 -25.5t77.5 -10.5zM235 -204q-23 0 -39.5 16t-16.5 39q0 22 16.5 39t39.5 17q22 0 38.5 -17t16.5 -39q0 -23 -16.5 -39t-38.5 -16z" />
    <glyph glyph-name="dalDotbelowTah-ar.fina" unicode="&#x68b;" horiz-adv-x="544" 
d="M216 94q72 0 100.5 21t28.5 56q0 27 -19.5 70t-49.5 92t-61 95l83 55q60 -89 97 -164.5t53 -132.5q12 -40 29.5 -60t37.5 -26t38 -6q25 0 37 -14t12 -33q0 -21 -16 -36.5t-43 -15.5q-42 0 -78 16.5t-58 54.5q-22 -31 -66 -51.5t-119 -20.5q-52 0 -102 13t-85 37l43 86
q25 -15 60.5 -25.5t77.5 -10.5zM222 600q-18 0 -42.5 1.5t-46.5 3.5l-33 3l2 60q6 -1 13.5 -1.5t15.5 -1.5q9 17 20 32l-5 164h58l5 -104q19 13 38.5 21t39.5 8q38 0 60.5 -24t22.5 -59q0 -21 -11.5 -45t-43.5 -41t-93 -17zM278 724q-17 0 -33.5 -10.5t-30.5 -25.5t-23 -27
q13 -1 24 -1q51 0 72.5 10.5t21.5 27.5q0 26 -31 26zM235 -204q-23 0 -39.5 16t-16.5 39q0 22 16.5 39t39.5 17q22 0 38.5 -17t16.5 -39q0 -23 -16.5 -39t-38.5 -16z" />
    <glyph glyph-name="dalThreedotsdown-ar.fina" unicode="&#x68f;" horiz-adv-x="544" 
d="M216 94q72 0 100.5 21t28.5 56q0 27 -19.5 70t-49.5 92t-61 95l83 55q60 -89 97 -164.5t53 -132.5q12 -40 29.5 -60t37.5 -26t38 -6q25 0 37 -14t12 -33q0 -21 -16 -36.5t-43 -15.5q-42 0 -78 16.5t-58 54.5q-22 -31 -66 -51.5t-119 -20.5q-52 0 -102 13t-85 37l43 86
q25 -15 60.5 -25.5t77.5 -10.5zM153 686q-22 0 -38 15t-16 38q0 22 16 38t38 16t37.5 -16t15.5 -38q0 -23 -15.5 -38t-37.5 -15zM295 686q-22 0 -38 15t-16 38q0 22 16 38t38 16t37.5 -16t15.5 -38q0 -23 -15.5 -38t-37.5 -15zM223 569q-22 0 -37.5 15.5t-15.5 37.5t15.5 38
t37.5 16t37.5 -16t15.5 -38t-15.5 -37.5t-37.5 -15.5z" />
    <glyph glyph-name="dalFourdots-ar.fina" unicode="&#x690;" horiz-adv-x="544" 
d="M216 94q72 0 100.5 21t28.5 56q0 27 -19.5 70t-49.5 92t-61 95l83 55q60 -89 97 -164.5t53 -132.5q12 -40 29.5 -60t37.5 -26t38 -6q25 0 37 -14t12 -33q0 -21 -16 -36.5t-43 -15.5q-42 0 -78 16.5t-58 54.5q-22 -31 -66 -51.5t-119 -20.5q-52 0 -102 13t-85 37l43 86
q25 -15 60.5 -25.5t77.5 -10.5zM157 698q-22 0 -37 15t-15 36q0 22 15 37.5t37 15.5q21 0 36 -15.5t15 -37.5q0 -21 -15 -36t-36 -15zM293 698q-22 0 -37 15t-15 36q0 22 15 37.5t37 15.5t37 -15.5t15 -37.5q0 -21 -15 -36t-37 -15zM157 569q-22 0 -37 15t-15 36
q0 22 15 37.5t37 15.5q21 0 36 -15.5t15 -37.5q0 -21 -15 -36t-36 -15zM293 569q-22 0 -37 15t-15 36q0 22 15 37.5t37 15.5t37 -15.5t15 -37.5q0 -21 -15 -36t-37 -15z" />
    <glyph glyph-name="rehv-ar.fina" unicode="&#x692;" horiz-adv-x="412" 
d="M8 -232l-36 90q134 46 191.5 114t57.5 141q0 47 -21 97t-47 97l90 45q28 -52 46.5 -102t28.5 -80q14 -45 37 -60.5t67 -15.5q26 0 37.5 -14t11.5 -33q0 -21 -16.5 -36.5t-42.5 -15.5q-39 0 -65.5 12t-42.5 32q-11 -54 -42.5 -98.5t-74.5 -79t-89.5 -58t-89.5 -35.5z
M148 467q-9 20 -25.5 53t-33.5 66.5t-30 54.5l50 27q7 -11 20 -34.5t27 -50.5t24 -49q11 26 23.5 54.5t23 51t15.5 30.5l49 -20q-5 -10 -16 -32.5t-23.5 -50t-23.5 -53t-17 -41.5z" />
    <glyph glyph-name="rehRing-ar.fina" unicode="&#x693;" horiz-adv-x="412" 
d="M8 -232l-36 90q134 46 191.5 114t57.5 141q0 47 -21 97t-47 97l90 45q28 -52 46.5 -102t28.5 -80q14 -45 37 -60.5t67 -15.5q26 0 37.5 -14t11.5 -33q0 -21 -16.5 -36.5t-42.5 -15.5q-39 0 -65.5 12t-42.5 32q-11 -54 -42.5 -98.5t-74.5 -79t-89.5 -58t-89.5 -35.5z
M253 -223q-39 0 -65.5 27.5t-26.5 64.5q0 38 26.5 65.5t65.5 27.5q38 0 65 -27.5t27 -65.5q0 -37 -27 -64.5t-65 -27.5zM253 -168q16 0 28 10.5t12 26.5q0 17 -12 28t-28 11t-28 -11t-12 -28q0 -16 12 -26.5t28 -10.5z" />
    <glyph glyph-name="rehDotbelow-ar.fina" unicode="&#x694;" horiz-adv-x="412" 
d="M8 -232l-36 90q134 46 191.5 114t57.5 141q0 47 -21 97t-47 97l90 45q28 -52 46.5 -102t28.5 -80q14 -45 37 -60.5t67 -15.5q26 0 37.5 -14t11.5 -33q0 -21 -16.5 -36.5t-42.5 -15.5q-39 0 -65.5 12t-42.5 32q-11 -54 -42.5 -98.5t-74.5 -79t-89.5 -58t-89.5 -35.5z
M266 -267q-23 0 -39.5 16t-16.5 39t16.5 40t39.5 17q22 0 38.5 -17t16.5 -40t-16.5 -39t-38.5 -16z" />
    <glyph glyph-name="rehVbelow-ar.fina" unicode="&#x695;" horiz-adv-x="412" 
d="M8 -232l-36 90q134 46 191.5 114t57.5 141q0 47 -21 97t-47 97l90 45q28 -52 46.5 -102t28.5 -80q14 -45 37 -60.5t67 -15.5q26 0 37.5 -14t11.5 -33q0 -21 -16.5 -36.5t-42.5 -15.5q-39 0 -65.5 12t-42.5 32q-11 -54 -42.5 -98.5t-74.5 -79t-89.5 -58t-89.5 -35.5z
M44.1992 -39.7969q-7.2002 16 -20.4004 41.1992q-13.1992 25.2002 -26.7988 50.3994q-13.6006 25.1992 -24 41.999l39.999 21.5996q5.60059 -9.59961 16 -27.1992q10.4004 -17.5996 21.5996 -37.999q11.2002 -20.4004 19.2002 -37.2002q8.7998 20 19.1992 41.5996
q10.4004 21.5996 18.4004 38.7998q7.99902 17.1992 11.999 23.5996l39.2002 -16q-4 -8 -12.8008 -25.1992q-8.7998 -17.2002 -18.7988 -38q-10 -20.7998 -18.7998 -40.3994t-13.6006 -32.3994z" />
    <glyph glyph-name="rehDotbelowdotabove-ar.fina" unicode="&#x696;" horiz-adv-x="412" 
d="M8 -232l-36 90q134 46 191.5 114t57.5 141q0 47 -21 97t-47 97l90 45q28 -52 46.5 -102t28.5 -80q14 -45 37 -60.5t67 -15.5q26 0 37.5 -14t11.5 -33q0 -21 -16.5 -36.5t-42.5 -15.5q-39 0 -65.5 12t-42.5 32q-11 -54 -42.5 -98.5t-74.5 -79t-89.5 -58t-89.5 -35.5z
M76 -4q-24 0 -40.5 16t-16.5 40q0 23 16.5 40t40.5 17q23 0 39.5 -17t16.5 -40q0 -24 -16.5 -40t-39.5 -16zM266 -267q-23 0 -39.5 16t-16.5 39t16.5 40t39.5 17q22 0 38.5 -17t16.5 -40t-16.5 -39t-38.5 -16z" />
    <glyph glyph-name="rehTwodots-ar.fina" unicode="&#x697;" horiz-adv-x="412" 
d="M8 -232l-36 90q134 46 191.5 114t57.5 141q0 47 -21 97t-47 97l90 45q28 -52 46.5 -102t28.5 -80q14 -45 37 -60.5t67 -15.5q26 0 37.5 -14t11.5 -33q0 -21 -16.5 -36.5t-42.5 -15.5q-39 0 -65.5 12t-42.5 32q-11 -54 -42.5 -98.5t-74.5 -79t-89.5 -58t-89.5 -35.5z
M255 463q-23 0 -39.5 16.5t-16.5 38.5t16.5 39t39.5 17q22 0 38.5 -17t16.5 -39t-16.5 -38.5t-38.5 -16.5zM107 463q-23 0 -39 16.5t-16 38.5q0 23 16 39.5t39 16.5q22 0 38.5 -16.5t16.5 -39.5q0 -22 -16.5 -38.5t-38.5 -16.5z" />
    <glyph glyph-name="rehFourdots-ar.fina" unicode="&#x699;" horiz-adv-x="412" 
d="M8 -232l-36 90q134 46 191.5 114t57.5 141q0 47 -21 97t-47 97l90 45q28 -52 46.5 -102t28.5 -80q14 -45 37 -60.5t67 -15.5q26 0 37.5 -14t11.5 -33q0 -21 -16.5 -36.5t-42.5 -15.5q-39 0 -65.5 12t-42.5 32q-11 -54 -42.5 -98.5t-74.5 -79t-89.5 -58t-89.5 -35.5z
M115 592q-22 0 -37 15t-15 36q0 22 15 37.5t37 15.5q21 0 36 -15.5t15 -37.5q0 -21 -15 -36t-36 -15zM251 592q-22 0 -37 15t-15 36q0 22 15 37.5t37 15.5t37 -15.5t15 -37.5q0 -21 -15 -36t-37 -15zM115 463q-22 0 -37 15t-15 36q0 22 15 37.5t37 15.5q21 0 36 -15.5
t15 -37.5q0 -21 -15 -36t-36 -15zM251 463q-22 0 -37 15t-15 36q0 22 15 37.5t37 15.5t37 -15.5t15 -37.5q0 -21 -15 -36t-37 -15z" />
    <glyph glyph-name="seenDotbelowDotabove-ar.init" unicode="&#x69a;" horiz-adv-x="833" 
d="M0 -5l10 99q32 0 52.5 5t34 23.5t25 59t26.5 110.5l91 -22q-5 -25 -12.5 -59t-7.5 -62q0 -25 18.5 -40t68.5 -15q28 0 47 5t32 24.5t23 61t21 114.5l93 -16q-4 -19 -8 -45t-7 -51t-3 -41q0 -14 6.5 -26t26 -19t58.5 -7q43 0 68 17t25 65q0 38 -17 96t-40 118l99 33
q14 -35 26 -78.5t19.5 -85t7.5 -72.5q0 -96 -50.5 -144t-135.5 -48q-59 0 -93 15t-48 49q-26 -41 -61.5 -52.5t-97.5 -11.5q-23 0 -47.5 5t-46 19.5t-34.5 43.5q-28 -44 -69.5 -56t-99.5 -12zM411 -204q-23 0 -39.5 16t-16.5 39q0 22 16.5 39t39.5 17q22 0 38.5 -17
t16.5 -39q0 -23 -16.5 -39t-38.5 -16zM455 449q-24 0 -40.5 16t-16.5 40q0 23 16.5 40t40.5 17q23 0 39.5 -17t16.5 -40q0 -24 -16.5 -40t-39.5 -16z" />
    <glyph glyph-name="seenDotbelowDotabove-ar.medi" unicode="&#x69a;" horiz-adv-x="900" 
d="M0 -5l10 99q32 0 52.5 5t34 23.5t25 59t26.5 110.5l91 -22q-5 -25 -12.5 -59t-7.5 -62q0 -25 18.5 -40t68.5 -15q28 0 47 5t32 24.5t23 61t21 114.5l93 -16q-4 -19 -8 -45t-7 -51t-3 -41q0 -14 6.5 -26t26 -19t58.5 -7q49 0 71 20.5t22 62.5q0 35 -2 76.5t-10 104.5l89 6
q6 -82 14.5 -135t23 -82.5t40 -41t67.5 -11.5q26 0 37.5 -14t11.5 -33q0 -21 -16 -36.5t-43 -15.5q-55 0 -96 23.5t-61 68.5q-21 -55 -62 -73.5t-95 -18.5q-51 0 -84 15t-47 48q-25 -40 -61 -51.5t-99 -11.5q-23 0 -47 5t-45 19.5t-34 43.5q-28 -44 -69.5 -56t-99.5 -12z
M406 -204q-23 0 -39.5 16t-16.5 39q0 22 16.5 39t39.5 17q22 0 38.5 -17t16.5 -39q0 -23 -16.5 -39t-38.5 -16zM452 449q-24 0 -40.5 16t-16.5 40q0 23 16.5 40t40.5 17q23 0 39.5 -17t16.5 -40q0 -24 -16.5 -40t-39.5 -16z" />
    <glyph glyph-name="seenDotbelowDotabove-ar.fina" unicode="&#x69a;" horiz-adv-x="1319" 
d="M322 -232q-81 0 -147.5 28t-106 81.5t-39.5 130.5q0 35 9.5 81.5t35.5 105.5l87 -32q-17 -43 -25 -78t-8 -65q0 -72 54 -112.5t143 -40.5q88 0 137.5 25.5t70 65.5t20.5 84q0 58 -14.5 114.5t-33.5 118.5l99 26q15 -57 22 -84.5t12 -43.5q16 -52 40.5 -65.5t61.5 -13.5
q20 0 35.5 5t29 24.5t24 61t19.5 114.5l93 -16q-3 -19 -7.5 -45t-7.5 -51t-3 -41q0 -21 16.5 -36.5t74.5 -15.5q49 0 71 20.5t22 62.5q0 35 -2.5 76.5t-9.5 104.5l90 6q6 -84 14.5 -137t23.5 -82t40 -40t66 -11q25 0 37 -14t12 -33q0 -21 -16 -36.5t-43 -15.5
q-55 0 -94.5 22.5t-59.5 62.5q-22 -51 -65 -68t-91 -17q-105 0 -134 63q-23 -36 -55.5 -49.5t-77.5 -13.5q-31 0 -54 8t-39 22q-7 -69 -41.5 -127.5t-104 -94t-181.5 -35.5zM874 -199q-23 0 -39.5 16t-16.5 39q0 22 16.5 39t39.5 17q22 0 38.5 -17t16.5 -39q0 -23 -16.5 -39
t-38.5 -16zM840 449q-24 0 -40.5 16t-16.5 40q0 23 16.5 40t40.5 17q23 0 39.5 -17t16.5 -40q0 -24 -16.5 -40t-39.5 -16z" />
    <glyph glyph-name="seenThreedotsbelow-ar.init" unicode="&#x69b;" horiz-adv-x="833" 
d="M0 -5l10 99q32 0 52.5 5t34 23.5t25 59t26.5 110.5l91 -22q-5 -25 -12.5 -59t-7.5 -62q0 -25 18.5 -40t68.5 -15q28 0 47 5t32 24.5t23 61t21 114.5l93 -16q-4 -19 -8 -45t-7 -51t-3 -41q0 -14 6.5 -26t26 -19t58.5 -7q43 0 68 17t25 65q0 38 -17 96t-40 118l99 33
q14 -35 26 -78.5t19.5 -85t7.5 -72.5q0 -96 -50.5 -144t-135.5 -48q-59 0 -93 15t-48 49q-26 -41 -61.5 -52.5t-97.5 -11.5q-23 0 -47.5 5t-46 19.5t-34.5 43.5q-28 -44 -69.5 -56t-99.5 -12zM351 -138q-19 0 -32.5 13t-13.5 33q0 19 13.5 32.5t32.5 13.5t33 -13.5t14 -32.5
q0 -20 -14 -33t-33 -13zM475 -138q-20 0 -33.5 13t-13.5 33q0 19 13.5 32.5t33.5 13.5q19 0 32 -13.5t13 -32.5q0 -20 -13 -33t-32 -13zM413 -240q-19 0 -33 13.5t-14 32.5t14 33t33 14t32.5 -14t13.5 -33t-13.5 -32.5t-32.5 -13.5z" />
    <glyph glyph-name="seenThreedotsbelow-ar.medi" unicode="&#x69b;" horiz-adv-x="900" 
d="M0 -5l10 99q32 0 52.5 5t34 23.5t25 59t26.5 110.5l91 -22q-5 -25 -12.5 -59t-7.5 -62q0 -25 18.5 -40t68.5 -15q28 0 47 5t32 24.5t23 61t21 114.5l93 -16q-4 -19 -8 -45t-7 -51t-3 -41q0 -14 6.5 -26t26 -19t58.5 -7q49 0 71 20.5t22 62.5q0 35 -2 76.5t-10 104.5l89 6
q6 -82 14.5 -135t23 -82.5t40 -41t67.5 -11.5q26 0 37.5 -14t11.5 -33q0 -21 -16 -36.5t-43 -15.5q-55 0 -96 23.5t-61 68.5q-21 -55 -62 -73.5t-95 -18.5q-51 0 -84 15t-47 48q-25 -40 -61 -51.5t-99 -11.5q-23 0 -47 5t-45 19.5t-34 43.5q-28 -44 -69.5 -56t-99.5 -12z
M346 -138q-19 0 -32.5 13t-13.5 33q0 19 13.5 32.5t32.5 13.5t33 -13.5t14 -32.5q0 -20 -14 -33t-33 -13zM470 -138q-20 0 -33.5 13t-13.5 33q0 19 13.5 32.5t33.5 13.5q19 0 32 -13.5t13 -32.5q0 -20 -13 -33t-32 -13zM408 -240q-19 0 -33 13.5t-14 32.5t14 33t33 14
t32.5 -14t13.5 -33t-13.5 -32.5t-32.5 -13.5z" />
    <glyph glyph-name="seenThreedotsbelow-ar.fina" unicode="&#x69b;" horiz-adv-x="1319" 
d="M322 -232q-81 0 -147.5 28t-106 81.5t-39.5 130.5q0 35 9.5 81.5t35.5 105.5l87 -32q-17 -43 -25 -78t-8 -65q0 -72 54 -112.5t143 -40.5q88 0 137.5 25.5t70 65.5t20.5 84q0 58 -14.5 114.5t-33.5 118.5l99 26q15 -57 22 -84.5t12 -43.5q16 -52 40.5 -65.5t61.5 -13.5
q20 0 35.5 5t29 24.5t24 61t19.5 114.5l93 -16q-3 -19 -7.5 -45t-7.5 -51t-3 -41q0 -21 16.5 -36.5t74.5 -15.5q49 0 71 20.5t22 62.5q0 35 -2.5 76.5t-9.5 104.5l90 6q6 -84 14.5 -137t23.5 -82t40 -40t66 -11q25 0 37 -14t12 -33q0 -21 -16 -36.5t-43 -15.5
q-55 0 -94.5 22.5t-59.5 62.5q-22 -51 -65 -68t-91 -17q-105 0 -134 63q-23 -36 -55.5 -49.5t-77.5 -13.5q-31 0 -54 8t-39 22q-7 -69 -41.5 -127.5t-104 -94t-181.5 -35.5zM809 -139q-19 0 -32.5 13t-13.5 33q0 19 13.5 32.5t32.5 13.5t33 -13.5t14 -32.5q0 -20 -14 -33
t-33 -13zM933 -139q-20 0 -33.5 13t-13.5 33q0 19 13.5 32.5t33.5 13.5q19 0 32 -13.5t13 -32.5q0 -20 -13 -33t-32 -13zM871 -241q-19 0 -33 13.5t-14 32.5t14 33t33 14t32.5 -14t13.5 -33t-13.5 -32.5t-32.5 -13.5z" />
    <glyph glyph-name="sadTwodotsbelow-ar.init" unicode="&#x69d;" horiz-adv-x="924" 
d="M494 -18q-109 0 -174.5 10t-100.5 30t-50 50q-24 -35 -51 -51.5t-57 -21t-61 -4.5l10 99q45 0 68 18t37.5 61.5t32.5 118.5l89 -23q-10 -37 -15.5 -64t-5.5 -41q0 -27 14.5 -44t61.5 -27q34 54 79 106t97.5 95t109.5 68.5t116 25.5q58 0 100 -23.5t64.5 -64t22.5 -91.5
q0 -63 -37 -114.5t-121.5 -82t-228.5 -30.5zM685 289q-42 0 -83.5 -20t-80 -52t-71 -67.5t-54.5 -66.5q43 -2 103 -2q145 0 215.5 30.5t70.5 89.5q0 21 -10 41t-32.5 33.5t-57.5 13.5zM571 -220q-23 0 -39.5 16t-16.5 39t16.5 39.5t39.5 16.5q22 0 38.5 -16.5t16.5 -39.5
t-16.5 -39t-38.5 -16zM424 -220q-24 0 -40 16t-16 39t16 39.5t40 16.5q23 0 38.5 -16.5t15.5 -39.5t-15.5 -39t-38.5 -16z" />
    <glyph glyph-name="sadTwodotsbelow-ar.medi" unicode="&#x69d;" horiz-adv-x="965" 
d="M494 -18q-109 0 -174.5 10t-100.5 30t-50 50q-24 -35 -51 -51.5t-57 -21t-61 -4.5l10 99q45 0 68 18t37.5 61.5t32.5 118.5l89 -23q-10 -37 -15.5 -64t-5.5 -41q0 -27 14.5 -44t61.5 -27q34 54 79 106t97.5 95t109.5 68.5t116 25.5q58 0 100 -23.5t64.5 -64t22.5 -91.5
q0 -63 -37 -114.5t-121.5 -82t-228.5 -30.5zM685 289q-42 0 -83.5 -20t-80 -52t-71 -67.5t-54.5 -66.5q43 -2 103 -2q145 0 215.5 30.5t70.5 89.5q0 21 -10 41t-32.5 33.5t-57.5 13.5zM965 -5q-34 0 -75.5 6.5t-81 21t-66.5 38.5l84 58q36 -15 73.5 -20t75.5 -5
q26 0 37.5 -14t11.5 -33q0 -21 -16 -36.5t-43 -15.5zM571 -220q-23 0 -39.5 16t-16.5 39t16.5 39.5t39.5 16.5q22 0 38.5 -16.5t16.5 -39.5t-16.5 -39t-38.5 -16zM424 -220q-24 0 -40 16t-16 39t16 39.5t40 16.5q23 0 38.5 -16.5t15.5 -39.5t-15.5 -39t-38.5 -16z" />
    <glyph glyph-name="sadTwodotsbelow-ar.fina" unicode="&#x69d;" horiz-adv-x="1379" 
d="M322 -232q-80 0 -146.5 28t-106.5 81.5t-40 130.5q0 35 9.5 81.5t35.5 105.5l87 -32q-17 -43 -25 -78t-8 -65q0 -48 25.5 -82.5t70 -52.5t101.5 -18q85 0 135 26.5t71.5 70t21.5 94.5q0 46 -15 100.5t-33 116.5l99 26q15 -57 21.5 -85t12.5 -43q9 -23 27 -39.5t48 -26.5
q34 51 78.5 102t96 92.5t108 66.5t114.5 25t100 -23.5t64.5 -64t22.5 -91.5q0 -63 -36.5 -114.5t-121.5 -82t-229 -30.5q-93 0 -157.5 15t-100.5 38q-5 -53 -25 -102t-58.5 -87t-99 -60.5t-147.5 -22.5zM1102 294q-42 0 -84 -20.5t-81 -52t-71 -67t-55 -65.5q44 -3 108 -3
q142 0 212 31t70 89q0 20 -10 40.5t-32 34t-57 13.5zM1378 -5q-34 0 -75.5 6.5t-81 21t-66.5 38.5l84 58q36 -15 73.5 -20t75.5 -5q26 0 37.5 -14t11.5 -33q0 -21 -16 -36.5t-43 -15.5zM996 -215q-23 0 -39.5 16t-16.5 39t16.5 39.5t39.5 16.5q22 0 38.5 -16.5t16.5 -39.5
t-16.5 -39t-38.5 -16zM849 -215q-24 0 -40 16t-16 39t16 39.5t40 16.5q23 0 38.5 -16.5t15.5 -39.5t-15.5 -39t-38.5 -16z" />
    <glyph glyph-name="sadThreedots-ar.init" unicode="&#x69e;" horiz-adv-x="924" 
d="M494 -18q-109 0 -174.5 10t-100.5 30t-50 50q-24 -35 -51 -51.5t-57 -21t-61 -4.5l10 99q45 0 68 18t37.5 61.5t32.5 118.5l89 -23q-10 -37 -15.5 -64t-5.5 -41q0 -27 14.5 -44t61.5 -27q34 54 79 106t97.5 95t109.5 68.5t116 25.5q58 0 100 -23.5t64.5 -64t22.5 -91.5
q0 -63 -37 -114.5t-121.5 -82t-228.5 -30.5zM685 289q-42 0 -83.5 -20t-80 -52t-71 -67.5t-54.5 -66.5q43 -2 103 -2q145 0 215.5 30.5t70.5 89.5q0 21 -10 41t-32.5 33.5t-57.5 13.5zM668 605q-22 0 -37.5 15.5t-15.5 37.5q0 23 15.5 38.5t37.5 15.5t37.5 -15.5t15.5 -38.5
q0 -22 -15.5 -37.5t-37.5 -15.5zM597 489q-23 0 -38.5 15.5t-15.5 37.5t15.5 37.5t38.5 15.5q22 0 37.5 -15.5t15.5 -37.5t-15.5 -37.5t-37.5 -15.5zM739 489q-23 0 -38.5 15.5t-15.5 37.5t15.5 37.5t38.5 15.5q22 0 37 -15.5t15 -37.5t-15 -37.5t-37 -15.5z" />
    <glyph glyph-name="sadThreedots-ar.medi" unicode="&#x69e;" horiz-adv-x="965" 
d="M494 -18q-109 0 -174.5 10t-100.5 30t-50 50q-24 -35 -51 -51.5t-57 -21t-61 -4.5l10 99q45 0 68 18t37.5 61.5t32.5 118.5l89 -23q-10 -37 -15.5 -64t-5.5 -41q0 -27 14.5 -44t61.5 -27q34 54 79 106t97.5 95t109.5 68.5t116 25.5q58 0 100 -23.5t64.5 -64t22.5 -91.5
q0 -63 -37 -114.5t-121.5 -82t-228.5 -30.5zM685 289q-42 0 -83.5 -20t-80 -52t-71 -67.5t-54.5 -66.5q43 -2 103 -2q145 0 215.5 30.5t70.5 89.5q0 21 -10 41t-32.5 33.5t-57.5 13.5zM965 -5q-34 0 -75.5 6.5t-81 21t-66.5 38.5l84 58q36 -15 73.5 -20t75.5 -5
q26 0 37.5 -14t11.5 -33q0 -21 -16 -36.5t-43 -15.5zM668 605q-22 0 -37.5 15.5t-15.5 37.5q0 23 15.5 38.5t37.5 15.5t37.5 -15.5t15.5 -38.5q0 -22 -15.5 -37.5t-37.5 -15.5zM597 489q-23 0 -38.5 15.5t-15.5 37.5t15.5 37.5t38.5 15.5q22 0 37.5 -15.5t15.5 -37.5
t-15.5 -37.5t-37.5 -15.5zM739 489q-23 0 -38.5 15.5t-15.5 37.5t15.5 37.5t38.5 15.5q22 0 37 -15.5t15 -37.5t-15 -37.5t-37 -15.5z" />
    <glyph glyph-name="sadThreedots-ar.fina" unicode="&#x69e;" horiz-adv-x="1379" 
d="M322 -232q-80 0 -146.5 28t-106.5 81.5t-40 130.5q0 35 9.5 81.5t35.5 105.5l87 -32q-17 -43 -25 -78t-8 -65q0 -48 25.5 -82.5t70 -52.5t101.5 -18q85 0 135 26.5t71.5 70t21.5 94.5q0 46 -15 100.5t-33 116.5l99 26q15 -57 21.5 -85t12.5 -43q9 -23 27 -39.5t48 -26.5
q34 51 78.5 102t96 92.5t108 66.5t114.5 25t100 -23.5t64.5 -64t22.5 -91.5q0 -63 -36.5 -114.5t-121.5 -82t-229 -30.5q-93 0 -157.5 15t-100.5 38q-5 -53 -25 -102t-58.5 -87t-99 -60.5t-147.5 -22.5zM1102 294q-42 0 -84 -20.5t-81 -52t-71 -67t-55 -65.5q44 -3 108 -3
q142 0 212 31t70 89q0 20 -10 40.5t-32 34t-57 13.5zM1378 -5q-34 0 -75.5 6.5t-81 21t-66.5 38.5l84 58q36 -15 73.5 -20t75.5 -5q26 0 37.5 -14t11.5 -33q0 -21 -16 -36.5t-43 -15.5zM1082 609q-22 0 -37.5 15.5t-15.5 37.5q0 23 15.5 38.5t37.5 15.5t37.5 -15.5
t15.5 -38.5q0 -22 -15.5 -37.5t-37.5 -15.5zM1011 493q-23 0 -38.5 15.5t-15.5 37.5t15.5 37.5t38.5 15.5q22 0 37.5 -15.5t15.5 -37.5t-15.5 -37.5t-37.5 -15.5zM1153 493q-23 0 -38.5 15.5t-15.5 37.5t15.5 37.5t38.5 15.5q22 0 37 -15.5t15 -37.5t-15 -37.5t-37 -15.5z
" />
    <glyph glyph-name="tahThreedots-ar.init" unicode="&#x69f;" horiz-adv-x="695" 
d="M0 -5l10 99h50q17 27 36 52l-19 573h99l17 -462q60 59 129.5 97.5t141.5 38.5q58 0 100 -24t64.5 -64.5t22.5 -92.5q0 -53 -34.5 -102t-118.5 -78q-62 -21 -146.5 -29t-213.5 -8h-138zM457 293q-41 0 -81.5 -19t-78 -49t-69 -64.5t-55.5 -66.5h50q179 0 256 29.5t77 86.5
q0 18 -10.5 37t-32 32.5t-56.5 13.5zM424 609q-22 0 -37.5 15.5t-15.5 37.5q0 23 15.5 38.5t37.5 15.5t37.5 -15.5t15.5 -38.5q0 -22 -15.5 -37.5t-37.5 -15.5zM353 493q-23 0 -38.5 15.5t-15.5 37.5t15.5 37.5t38.5 15.5q22 0 37.5 -15.5t15.5 -37.5t-15.5 -37.5
t-37.5 -15.5zM495 493q-23 0 -38.5 15.5t-15.5 37.5t15.5 37.5t38.5 15.5q22 0 37 -15.5t15 -37.5t-15 -37.5t-37 -15.5z" />
    <glyph glyph-name="tahThreedots-ar.medi" unicode="&#x69f;" horiz-adv-x="725" 
d="M0 -5l10 99h50q17 27 36 52l-19 573h99l17 -462q60 59 129.5 97.5t141.5 38.5q58 0 100 -24t64.5 -64.5t22.5 -92.5q0 -53 -34.5 -102t-118.5 -78q-62 -21 -146.5 -29t-213.5 -8h-138zM457 293q-41 0 -81.5 -19t-78 -49t-69 -64.5t-55.5 -66.5h50q179 0 256 29.5t77 86.5
q0 18 -10.5 37t-32 32.5t-56.5 13.5zM725 -5q-34 0 -75.5 6.5t-81 21t-66.5 38.5l84 58q36 -15 73.5 -20t75.5 -5q26 0 37.5 -14t11.5 -33q0 -21 -16 -36.5t-43 -15.5zM424 609q-22 0 -37.5 15.5t-15.5 37.5q0 23 15.5 38.5t37.5 15.5t37.5 -15.5t15.5 -38.5
q0 -22 -15.5 -37.5t-37.5 -15.5zM353 493q-23 0 -38.5 15.5t-15.5 37.5t15.5 37.5t38.5 15.5q22 0 37.5 -15.5t15.5 -37.5t-15.5 -37.5t-37.5 -15.5zM495 493q-23 0 -38.5 15.5t-15.5 37.5t15.5 37.5t38.5 15.5q22 0 37 -15.5t15 -37.5t-15 -37.5t-37 -15.5z" />
    <glyph glyph-name="tahThreedots-ar.fina" unicode="&#x69f;" horiz-adv-x="840" 
d="M374 -13q-118 0 -209 6t-145 13l11 96q60 -8 136 -11q21 32 44 64l-18 564h98l17 -455q60 55 128 92t138 37q58 0 99.5 -23.5t64.5 -63.5t23 -92q0 -63 -36.5 -114.5t-121.5 -82t-229 -30.5zM566 294q-42 0 -84 -20.5t-80.5 -52.5t-70.5 -68t-54 -66q48 -1 106 -1
q142 0 212.5 31t70.5 88q0 21 -10.5 41.5t-32.5 34t-57 13.5zM840 -5q-34 0 -75.5 6.5t-81 21t-66.5 38.5l84 58q36 -15 73.5 -20t75.5 -5q26 0 37.5 -14t11.5 -33q0 -21 -16 -36.5t-43 -15.5zM537 610q-22 0 -37.5 15.5t-15.5 37.5q0 23 15.5 38.5t37.5 15.5t37.5 -15.5
t15.5 -38.5q0 -22 -15.5 -37.5t-37.5 -15.5zM466 494q-23 0 -38.5 15.5t-15.5 37.5t15.5 37.5t38.5 15.5q22 0 37.5 -15.5t15.5 -37.5t-15.5 -37.5t-37.5 -15.5zM608 494q-23 0 -38.5 15.5t-15.5 37.5t15.5 37.5t38.5 15.5q22 0 37 -15.5t15 -37.5t-15 -37.5t-37 -15.5z" />
    <glyph glyph-name="ainThreedots-ar.init" unicode="&#x6a0;" horiz-adv-x="519" 
d="M0 -5l10 99q58 0 90 1t47 2t22 2q-15 10 -37 30.5t-38.5 53.5t-16.5 78q0 57 28 101t77 69t111 25q25 0 52 -4t52 -12l-19 -94q-42 11 -82 11q-53 0 -86 -27.5t-33 -73.5q0 -30 14.5 -53t37 -39.5t46.5 -25t42 -8.5q21 6 37 11t38 14t62 26l33 -90q-72 -31 -144.5 -52.5
t-155.5 -32.5t-187 -11zM271 672q-22 0 -37.5 15.5t-15.5 37.5q0 23 15.5 38.5t37.5 15.5t37.5 -15.5t15.5 -38.5q0 -22 -15.5 -37.5t-37.5 -15.5zM200 556q-23 0 -38.5 15.5t-15.5 37.5t15.5 37.5t38.5 15.5q22 0 37.5 -15.5t15.5 -37.5t-15.5 -37.5t-37.5 -15.5zM342 556
q-23 0 -38.5 15.5t-15.5 37.5t15.5 37.5t38.5 15.5q22 0 37 -15.5t15 -37.5t-15 -37.5t-37 -15.5z" />
    <glyph glyph-name="ainThreedots-ar.medi" unicode="&#x6a0;" horiz-adv-x="530" 
d="M-1 -5l10 99q52 0 98 7.5t85 21.5q-22 26 -51 53.5t-59 50.5q-6 5 -12.5 19t-10.5 29.5t-4 22.5q0 18 19.5 40t53 42.5t75.5 34t87 13.5q88 0 128.5 -37.5t40.5 -87.5q0 -48 -25 -95.5t-71 -88.5q40 -12 85.5 -18.5t91.5 -6.5q26 0 37.5 -14t11.5 -33q0 -21 -16 -36.5
t-43 -15.5q-73 0 -140.5 15.5t-120.5 45.5q-55 -28 -123.5 -44.5t-146.5 -16.5zM145 296q34 -28 67.5 -60t68.5 -71q39 26 60.5 56t21.5 59q0 20 -19.5 38t-69.5 18q-30 0 -68 -11.5t-61 -28.5zM285 645q-22 0 -37.5 15.5t-15.5 37.5q0 23 15.5 38.5t37.5 15.5t37.5 -15.5
t15.5 -38.5q0 -22 -15.5 -37.5t-37.5 -15.5zM214 529q-23 0 -38.5 15.5t-15.5 37.5t15.5 37.5t38.5 15.5q22 0 37.5 -15.5t15.5 -37.5t-15.5 -37.5t-37.5 -15.5zM356 529q-23 0 -38.5 15.5t-15.5 37.5t15.5 37.5t38.5 15.5q22 0 37 -15.5t15 -37.5t-15 -37.5t-37 -15.5z" />
    <glyph glyph-name="ainThreedots-ar.fina" unicode="&#x6a0;" horiz-adv-x="589" 
d="M316 -271q-81 0 -148 20t-107.5 64.5t-40.5 118.5q0 64 31 111t77.5 83t95.5 67q-24 29 -54.5 59t-62.5 53q-5 5 -11.5 19t-11 30t-4.5 23q0 17 19 39t52 43t75.5 34.5t89.5 13.5q78 0 118.5 -36.5t40.5 -89.5q0 -63 -31.5 -109.5t-77.5 -83.5q53 -45 105 -69.5
t128 -24.5q26 0 37.5 -14t11.5 -33q0 -21 -16.5 -36.5t-42.5 -15.5q-74 0 -126.5 18t-94 48.5t-82.5 68.5q-43 -28 -80.5 -56.5t-61.5 -61.5t-24 -74q0 -42 29 -66t74 -34t94 -10q50 0 105.5 11.5t116.5 36.5l30 -81q-48 -27 -117 -46.5t-136 -19.5zM170 374
q36 -29 68.5 -60.5t65.5 -67.5q33 25 54 52.5t21 60.5q0 19 -18 37t-62 18q-31 0 -68.5 -11.5t-60.5 -28.5zM306 724q-22 0 -37.5 15.5t-15.5 37.5q0 23 15.5 38.5t37.5 15.5t37.5 -15.5t15.5 -38.5q0 -22 -15.5 -37.5t-37.5 -15.5zM235 608q-23 0 -38.5 15.5t-15.5 37.5
t15.5 37.5t38.5 15.5q22 0 37.5 -15.5t15.5 -37.5t-15.5 -37.5t-37.5 -15.5zM377 608q-23 0 -38.5 15.5t-15.5 37.5t15.5 37.5t38.5 15.5q22 0 37 -15.5t15 -37.5t-15 -37.5t-37 -15.5z" />
    <glyph glyph-name="dotlessfeh-ar.init" unicode="&#x6a1;" horiz-adv-x="464" 
d="M0 -5l10 99q83 0 145 3t93 16q24 10 40 24.5t25 38.5q-19 -6 -39.5 -9t-41.5 -3q-77 0 -120 35t-43 99q0 40 13 80t36.5 73t56.5 53t74 20q58 0 96 -36.5t57 -96t19 -127.5q0 -147 -99 -213q-46 -35 -127 -45.5t-195 -10.5zM166 320q0 -28 19 -44t63 -16q41 0 77 11
q0 66 -22.5 110.5t-61.5 44.5q-21 0 -38 -15.5t-27 -40t-10 -50.5z" />
    <glyph glyph-name="dotlessfeh-ar.medi" unicode="&#x6a1;" horiz-adv-x="505" 
d="M0 -5l10 99q34 0 67.5 1t62.5 5q-24 23 -44 57t-20 81q0 56 26.5 100t69 69.5t89.5 25.5q52 0 91 -27t60.5 -70t21.5 -90q0 -45 -17 -81.5t-46 -64.5q37 -3 75 -4.5t69 -1.5q25 0 37 -14t12 -33q0 -21 -16 -36.5t-43 -15.5q-65 0 -132.5 9.5t-118.5 25.5l-22 -8
q-44 -14 -106 -20.5t-126 -6.5zM175 234q0 -35 21 -62.5t50 -45.5q39 17 64.5 45.5t25.5 66.5q0 21 -10 43.5t-28 38.5t-40 16t-41 -14.5t-30.5 -38t-11.5 -49.5z" />
    <glyph glyph-name="dotlessfeh-ar.fina" unicode="&#x6a1;" horiz-adv-x="1103" 
d="M400 -21q-189 0 -279 51.5t-90 157.5q0 40 9.5 84t20.5 81l89 -21q-6 -25 -13 -57.5t-7 -57.5q0 -48 26.5 -79t91 -45.5t178.5 -14.5q98 0 178 6t134 15q-23 22 -43.5 55t-20.5 79q0 56 27 101.5t69 72t89 26.5q51 0 90 -28.5t61 -72.5t22 -91q0 -45 -17 -80t-46 -62
q37 -3 75 -4t69 -1q25 0 37 -14t12 -33q0 -21 -16 -36.5t-43 -15.5q-66 0 -131 9t-119 26q-11 -4 -23 -8q-32 -11 -98.5 -21t-153 -16t-178.5 -6zM773 231q0 -35 22 -61t51 -43q38 17 63 44t25 64q0 21 -10.5 44.5t-28 40t-39.5 16.5t-41 -15.5t-30.5 -39.5t-11.5 -50z" />
    <glyph glyph-name="fehDotbelow-ar.init" unicode="&#x6a2;" horiz-adv-x="464" 
d="M0 -5l10 99q83 0 145 3t93 16q24 10 40 24.5t25 38.5q-19 -6 -39.5 -9t-41.5 -3q-77 0 -120 35t-43 99q0 40 13 80t36.5 73t56.5 53t74 20q58 0 96 -36.5t57 -96t19 -127.5q0 -147 -99 -213q-46 -35 -127 -45.5t-195 -10.5zM166 320q0 -28 19 -44t63 -16q41 0 77 11
q0 66 -22.5 110.5t-61.5 44.5q-21 0 -38 -15.5t-27 -40t-10 -50.5zM207 -207q-23 0 -39.5 16t-16.5 39q0 22 16.5 39t39.5 17q22 0 38.5 -17t16.5 -39q0 -23 -16.5 -39t-38.5 -16z" />
    <glyph glyph-name="fehDotbelow-ar.medi" unicode="&#x6a2;" horiz-adv-x="505" 
d="M0 -5l10 99q34 0 67.5 1t62.5 5q-24 23 -44 57t-20 81q0 56 26.5 100t69 69.5t89.5 25.5q52 0 91 -27t60.5 -70t21.5 -90q0 -45 -17 -81.5t-46 -64.5q37 -3 75 -4.5t69 -1.5q25 0 37 -14t12 -33q0 -21 -16 -36.5t-43 -15.5q-65 0 -132.5 9.5t-118.5 25.5l-22 -8
q-44 -14 -106 -20.5t-126 -6.5zM175 234q0 -35 21 -62.5t50 -45.5q39 17 64.5 45.5t25.5 66.5q0 21 -10 43.5t-28 38.5t-40 16t-41 -14.5t-30.5 -38t-11.5 -49.5zM249 -208q-23 0 -39.5 16t-16.5 39q0 22 16.5 39t39.5 17q22 0 38.5 -17t16.5 -39q0 -23 -16.5 -39t-38.5 -16
z" />
    <glyph glyph-name="fehDotbelow-ar.fina" unicode="&#x6a2;" horiz-adv-x="1103" 
d="M400 -21q-189 0 -279 51.5t-90 157.5q0 40 9.5 84t20.5 81l89 -21q-6 -25 -13 -57.5t-7 -57.5q0 -48 26.5 -79t91 -45.5t178.5 -14.5q98 0 178 6t134 15q-23 22 -43.5 55t-20.5 79q0 56 27 101.5t69 72t89 26.5q51 0 90 -28.5t61 -72.5t22 -91q0 -45 -17 -80t-46 -62
q37 -3 75 -4t69 -1q25 0 37 -14t12 -33q0 -21 -16 -36.5t-43 -15.5q-66 0 -131 9t-119 26q-11 -4 -23 -8q-32 -11 -98.5 -21t-153 -16t-178.5 -6zM773 231q0 -35 22 -61t51 -43q38 17 63 44t25 64q0 21 -10.5 44.5t-28 40t-39.5 16.5t-41 -15.5t-30.5 -39.5t-11.5 -50z
M469 -222q-23 0 -39.5 16t-16.5 39q0 22 16.5 39t39.5 17q22 0 38.5 -17t16.5 -39q0 -23 -16.5 -39t-38.5 -16z" />
    <glyph glyph-name="fehDotaboveDotbelow-ar.init" unicode="&#x6a3;" horiz-adv-x="464" 
d="M0 -5l10 99q83 0 145 3t93 16q24 10 40 24.5t25 38.5q-19 -6 -39.5 -9t-41.5 -3q-77 0 -120 35t-43 99q0 40 13 80t36.5 73t56.5 53t74 20q58 0 96 -36.5t57 -96t19 -127.5q0 -147 -99 -213q-46 -35 -127 -45.5t-195 -10.5zM166 320q0 -28 19 -44t63 -16q41 0 77 11
q0 66 -22.5 110.5t-61.5 44.5q-21 0 -38 -15.5t-27 -40t-10 -50.5zM235 625q-24 0 -40.5 16t-16.5 40q0 23 16.5 40t40.5 17q23 0 39.5 -17t16.5 -40q0 -24 -16.5 -40t-39.5 -16zM207 -207q-23 0 -39.5 16t-16.5 39q0 22 16.5 39t39.5 17q22 0 38.5 -17t16.5 -39
q0 -23 -16.5 -39t-38.5 -16z" />
    <glyph glyph-name="fehDotaboveDotbelow-ar.medi" unicode="&#x6a3;" horiz-adv-x="505" 
d="M0 -5l10 99q34 0 67.5 1t62.5 5q-24 23 -44 57t-20 81q0 56 26.5 100t69 69.5t89.5 25.5q52 0 91 -27t60.5 -70t21.5 -90q0 -45 -17 -81.5t-46 -64.5q37 -3 75 -4.5t69 -1.5q25 0 37 -14t12 -33q0 -21 -16 -36.5t-43 -15.5q-65 0 -132.5 9.5t-118.5 25.5l-22 -8
q-44 -14 -106 -20.5t-126 -6.5zM175 234q0 -35 21 -62.5t50 -45.5q39 17 64.5 45.5t25.5 66.5q0 21 -10 43.5t-28 38.5t-40 16t-41 -14.5t-30.5 -38t-11.5 -49.5zM255 534q-24 0 -40.5 16t-16.5 40q0 23 16.5 40t40.5 17q23 0 39.5 -17t16.5 -40q0 -24 -16.5 -40t-39.5 -16z
M249 -208q-23 0 -39.5 16t-16.5 39q0 22 16.5 39t39.5 17q22 0 38.5 -17t16.5 -39q0 -23 -16.5 -39t-38.5 -16z" />
    <glyph glyph-name="fehDotaboveDotbelow-ar.fina" unicode="&#x6a3;" horiz-adv-x="1103" 
d="M400 -21q-189 0 -279 51.5t-90 157.5q0 40 9.5 84t20.5 81l89 -21q-6 -25 -13 -57.5t-7 -57.5q0 -48 26.5 -79t91 -45.5t178.5 -14.5q98 0 178 6t134 15q-23 22 -43.5 55t-20.5 79q0 56 27 101.5t69 72t89 26.5q51 0 90 -28.5t61 -72.5t22 -91q0 -45 -17 -80t-46 -62
q37 -3 75 -4t69 -1q25 0 37 -14t12 -33q0 -21 -16 -36.5t-43 -15.5q-66 0 -131 9t-119 26q-11 -4 -23 -8q-32 -11 -98.5 -21t-153 -16t-178.5 -6zM773 231q0 -35 22 -61t51 -43q38 17 63 44t25 64q0 21 -10.5 44.5t-28 40t-39.5 16.5t-41 -15.5t-30.5 -39.5t-11.5 -50z
M853 534q-24 0 -40.5 16t-16.5 40q0 23 16.5 40t40.5 17q23 0 39.5 -17t16.5 -40q0 -24 -16.5 -40t-39.5 -16zM469 -222q-23 0 -39.5 16t-16.5 39q0 22 16.5 39t39.5 17q22 0 38.5 -17t16.5 -39q0 -23 -16.5 -39t-38.5 -16z" />
    <glyph glyph-name="fehThreedotsbelow-ar.init" unicode="&#x6a5;" horiz-adv-x="464" 
d="M0 -5l10 99q83 0 145 3t93 16q24 10 40 24.5t25 38.5q-19 -6 -39.5 -9t-41.5 -3q-77 0 -120 35t-43 99q0 40 13 80t36.5 73t56.5 53t74 20q58 0 96 -36.5t57 -96t19 -127.5q0 -147 -99 -213q-46 -35 -127 -45.5t-195 -10.5zM166 320q0 -28 19 -44t63 -16q41 0 77 11
q0 66 -22.5 110.5t-61.5 44.5q-21 0 -38 -15.5t-27 -40t-10 -50.5zM147 -142q-19 0 -32.5 13t-13.5 33q0 19 13.5 32.5t32.5 13.5t33 -13.5t14 -32.5q0 -20 -14 -33t-33 -13zM271 -142q-20 0 -33.5 13t-13.5 33q0 19 13.5 32.5t33.5 13.5q19 0 32 -13.5t13 -32.5
q0 -20 -13 -33t-32 -13zM209 -244q-19 0 -33 13.5t-14 32.5t14 33t33 14t32.5 -14t13.5 -33t-13.5 -32.5t-32.5 -13.5z" />
    <glyph glyph-name="fehThreedotsbelow-ar.medi" unicode="&#x6a5;" horiz-adv-x="505" 
d="M0 -5l10 99q34 0 67.5 1t62.5 5q-24 23 -44 57t-20 81q0 56 26.5 100t69 69.5t89.5 25.5q52 0 91 -27t60.5 -70t21.5 -90q0 -45 -17 -81.5t-46 -64.5q37 -3 75 -4.5t69 -1.5q25 0 37 -14t12 -33q0 -21 -16 -36.5t-43 -15.5q-65 0 -132.5 9.5t-118.5 25.5l-22 -8
q-44 -14 -106 -20.5t-126 -6.5zM175 234q0 -35 21 -62.5t50 -45.5q39 17 64.5 45.5t25.5 66.5q0 21 -10 43.5t-28 38.5t-40 16t-41 -14.5t-30.5 -38t-11.5 -49.5zM188 -142q-19 0 -32.5 13t-13.5 33q0 19 13.5 32.5t32.5 13.5t33 -13.5t14 -32.5q0 -20 -14 -33t-33 -13z
M312 -142q-20 0 -33.5 13t-13.5 33q0 19 13.5 32.5t33.5 13.5q19 0 32 -13.5t13 -32.5q0 -20 -13 -33t-32 -13zM250 -244q-19 0 -33 13.5t-14 32.5t14 33t33 14t32.5 -14t13.5 -33t-13.5 -32.5t-32.5 -13.5z" />
    <glyph glyph-name="fehThreedotsbelow-ar.fina" unicode="&#x6a5;" horiz-adv-x="1103" 
d="M400 -21q-189 0 -279 51.5t-90 157.5q0 40 9.5 84t20.5 81l89 -21q-6 -25 -13 -57.5t-7 -57.5q0 -48 26.5 -79t91 -45.5t178.5 -14.5q98 0 178 6t134 15q-23 22 -43.5 55t-20.5 79q0 56 27 101.5t69 72t89 26.5q51 0 90 -28.5t61 -72.5t22 -91q0 -45 -17 -80t-46 -62
q37 -3 75 -4t69 -1q25 0 37 -14t12 -33q0 -21 -16 -36.5t-43 -15.5q-66 0 -131 9t-119 26q-11 -4 -23 -8q-32 -11 -98.5 -21t-153 -16t-178.5 -6zM773 231q0 -35 22 -61t51 -43q38 17 63 44t25 64q0 21 -10.5 44.5t-28 40t-39.5 16.5t-41 -15.5t-30.5 -39.5t-11.5 -50z
M408 -156q-19 0 -32.5 13t-13.5 33q0 19 13.5 32.5t32.5 13.5t33 -13.5t14 -32.5q0 -20 -14 -33t-33 -13zM532 -156q-20 0 -33.5 13t-13.5 33q0 19 13.5 32.5t33.5 13.5q19 0 32 -13.5t13 -32.5q0 -20 -13 -33t-32 -13zM470 -258q-19 0 -33 13.5t-14 32.5t14 33t33 14
t32.5 -14t13.5 -33t-13.5 -32.5t-32.5 -13.5z" />
    <glyph glyph-name="qafDotabove-ar.init" unicode="&#x6a7;" horiz-adv-x="464" 
d="M0 -5l10 99q83 0 145 3t93 16q24 10 40 24.5t25 38.5q-19 -6 -39.5 -9t-41.5 -3q-77 0 -120 35t-43 99q0 40 13 80t36.5 73t56.5 53t74 20q58 0 96 -36.5t57 -96t19 -127.5q0 -147 -99 -213q-46 -35 -127 -45.5t-195 -10.5zM166 320q0 -28 19 -44t63 -16q41 0 77 11
q0 66 -22.5 110.5t-61.5 44.5q-21 0 -38 -15.5t-27 -40t-10 -50.5zM235 625q-24 0 -40.5 16t-16.5 40q0 23 16.5 40t40.5 17q23 0 39.5 -17t16.5 -40q0 -24 -16.5 -40t-39.5 -16z" />
    <glyph glyph-name="qafDotabove-ar.medi" unicode="&#x6a7;" horiz-adv-x="505" 
d="M0 -5l10 99q34 0 67.5 1t62.5 5q-24 23 -44 57t-20 81q0 56 26.5 100t69 69.5t89.5 25.5q52 0 91 -27t60.5 -70t21.5 -90q0 -45 -17 -81.5t-46 -64.5q37 -3 75 -4.5t69 -1.5q25 0 37 -14t12 -33q0 -21 -16 -36.5t-43 -15.5q-65 0 -132.5 9.5t-118.5 25.5l-22 -8
q-44 -14 -106 -20.5t-126 -6.5zM175 234q0 -35 21 -62.5t50 -45.5q39 17 64.5 45.5t25.5 66.5q0 21 -10 43.5t-28 38.5t-40 16t-41 -14.5t-30.5 -38t-11.5 -49.5zM255 534q-24 0 -40.5 16t-16.5 40q0 23 16.5 40t40.5 17q23 0 39.5 -17t16.5 -40q0 -24 -16.5 -40t-39.5 -16z
" />
    <glyph glyph-name="qafDotabove-ar.fina" unicode="&#x6a7;" horiz-adv-x="822" 
d="M333 -271q-83 0 -152 24.5t-110.5 77.5t-41.5 139q0 26 9 76.5t48 125.5l87 -38q-23 -50 -32.5 -82.5t-9.5 -63.5q0 -57 29.5 -91.5t80 -50.5t114.5 -16q114 0 185.5 39.5t91.5 97.5q4 13 8 28h-59q-82 0 -132.5 32.5t-52.5 103.5q-1 40 13 78.5t39 70t57.5 50t68.5 18.5
q74 0 123 -63t53 -191h82q26 0 37.5 -14t11.5 -33q0 -21 -16.5 -36.5t-42.5 -15.5h-83q-6 -23 -14 -47t-18 -45q-49 -93 -147 -133.5t-227 -40.5zM493 149q0 -32 31 -45t111 -10h16q-1 76 -24.5 116.5t-58.5 40.5q-20 0 -37.5 -15t-27.5 -38.5t-10 -48.5zM575 449
q-24 0 -40.5 16t-16.5 40q0 23 16.5 40t40.5 17q23 0 39.5 -17t16.5 -40q0 -24 -16.5 -40t-39.5 -16z" />
    <glyph glyph-name="qafThreedotsabove-ar.init" unicode="&#x6a8;" horiz-adv-x="464" 
d="M0 -5l10 99q83 0 145 3t93 16q24 10 40 24.5t25 38.5q-19 -6 -39.5 -9t-41.5 -3q-77 0 -120 35t-43 99q0 40 13 80t36.5 73t56.5 53t74 20q58 0 96 -36.5t57 -96t19 -127.5q0 -147 -99 -213q-46 -35 -127 -45.5t-195 -10.5zM166 320q0 -28 19 -44t63 -16q41 0 77 11
q0 66 -22.5 110.5t-61.5 44.5q-21 0 -38 -15.5t-27 -40t-10 -50.5zM238 741q-22 0 -37.5 15.5t-15.5 37.5q0 23 15.5 38.5t37.5 15.5t37.5 -15.5t15.5 -38.5q0 -22 -15.5 -37.5t-37.5 -15.5zM167 625q-23 0 -38.5 15.5t-15.5 37.5t15.5 37.5t38.5 15.5q22 0 37.5 -15.5
t15.5 -37.5t-15.5 -37.5t-37.5 -15.5zM309 625q-23 0 -38.5 15.5t-15.5 37.5t15.5 37.5t38.5 15.5q22 0 37 -15.5t15 -37.5t-15 -37.5t-37 -15.5z" />
    <glyph glyph-name="qafThreedotsabove-ar.medi" unicode="&#x6a8;" horiz-adv-x="505" 
d="M0 -5l10 99q34 0 67.5 1t62.5 5q-24 23 -44 57t-20 81q0 56 26.5 100t69 69.5t89.5 25.5q52 0 91 -27t60.5 -70t21.5 -90q0 -45 -17 -81.5t-46 -64.5q37 -3 75 -4.5t69 -1.5q25 0 37 -14t12 -33q0 -21 -16 -36.5t-43 -15.5q-65 0 -132.5 9.5t-118.5 25.5l-22 -8
q-44 -14 -106 -20.5t-126 -6.5zM175 234q0 -35 21 -62.5t50 -45.5q39 17 64.5 45.5t25.5 66.5q0 21 -10 43.5t-28 38.5t-40 16t-41 -14.5t-30.5 -38t-11.5 -49.5zM258 650q-22 0 -37.5 15.5t-15.5 37.5q0 23 15.5 38.5t37.5 15.5t37.5 -15.5t15.5 -38.5q0 -22 -15.5 -37.5
t-37.5 -15.5zM187 534q-23 0 -38.5 15.5t-15.5 37.5t15.5 37.5t38.5 15.5q22 0 37.5 -15.5t15.5 -37.5t-15.5 -37.5t-37.5 -15.5zM329 534q-23 0 -38.5 15.5t-15.5 37.5t15.5 37.5t38.5 15.5q22 0 37 -15.5t15 -37.5t-15 -37.5t-37 -15.5z" />
    <glyph glyph-name="qafThreedotsabove-ar.fina" unicode="&#x6a8;" horiz-adv-x="822" 
d="M333 -271q-83 0 -152 24.5t-110.5 77.5t-41.5 139q0 26 9 76.5t48 125.5l87 -38q-23 -50 -32.5 -82.5t-9.5 -63.5q0 -57 29.5 -91.5t80 -50.5t114.5 -16q114 0 185.5 39.5t91.5 97.5q4 13 8 28h-59q-82 0 -132.5 32.5t-52.5 103.5q-1 40 13 78.5t39 70t57.5 50t68.5 18.5
q74 0 123 -63t53 -191h82q26 0 37.5 -14t11.5 -33q0 -21 -16.5 -36.5t-42.5 -15.5h-83q-6 -23 -14 -47t-18 -45q-49 -93 -147 -133.5t-227 -40.5zM493 149q0 -32 31 -45t111 -10h16q-1 76 -24.5 116.5t-58.5 40.5q-20 0 -37.5 -15t-27.5 -38.5t-10 -48.5zM578 565
q-22 0 -37.5 15.5t-15.5 37.5q0 23 15.5 38.5t37.5 15.5t37.5 -15.5t15.5 -38.5q0 -22 -15.5 -37.5t-37.5 -15.5zM507 449q-23 0 -38.5 15.5t-15.5 37.5t15.5 37.5t38.5 15.5q22 0 37.5 -15.5t15.5 -37.5t-15.5 -37.5t-37.5 -15.5zM649 449q-23 0 -38.5 15.5t-15.5 37.5
t15.5 37.5t38.5 15.5q22 0 37 -15.5t15 -37.5t-15 -37.5t-37 -15.5z" />
    <glyph glyph-name="kafswash-ar.init" unicode="&#x6aa;" horiz-adv-x="778" 
d="M0 -5l10 99h289q167 0 252.5 6t85.5 44q0 18 -17.5 34t-67 28.5t-144.5 19.5q-109 8 -174.5 21t-95 36.5t-29.5 64.5q0 44 30 80.5t82.5 66.5t122 53.5t148.5 39.5l19 -91q-92 -19 -160.5 -43t-106 -48t-37.5 -43q0 -13 19.5 -21t65.5 -14t124 -13q126 -10 194 -31.5
t94 -54.5t26 -79q0 -64 -45 -97t-140 -45.5t-246 -12.5h-299z" />
    <glyph glyph-name="kafswash-ar.medi" unicode="&#x6aa;" horiz-adv-x="856" 
d="M0 -5l10 99h289q167 0 252.5 6t85.5 44q0 18 -17.5 34t-67 28.5t-144.5 19.5q-109 8 -174.5 21t-95 36.5t-29.5 64.5q0 44 30 80.5t82.5 66.5t122 53.5t148.5 39.5l19 -91q-92 -19 -160.5 -43t-106 -48t-37.5 -43q0 -13 19.5 -21t65.5 -14t124 -13q126 -10 194 -31.5
t94 -54.5t26 -79q0 -64 -45 -97t-140 -45.5t-246 -12.5h-299zM856 -5q-34 0 -75.5 6.5t-81 21t-66.5 38.5l84 58q36 -15 73.5 -20t75.5 -5q26 0 37.5 -14t11.5 -33q0 -21 -16 -36.5t-43 -15.5z" />
    <glyph glyph-name="kafswash-ar.fina" unicode="&#x6aa;" horiz-adv-x="1100" 
d="M1100 -5q-34 0 -75.5 6.5t-81 21t-66.5 38.5l84 58q36 -15 73.5 -20t75.5 -5q26 0 37.5 -14t11.5 -33q0 -21 -16 -36.5t-43 -15.5zM544 -15q-48 0 -112.5 1t-134 3t-133.5 6t-111 9l6 97q67 -5 147.5 -8.5t167 -6t170.5 -2.5q166 0 252 11t86 49q0 16 -17 32.5t-66 29.5
t-146 20q-109 8 -174.5 20.5t-95 37t-29.5 66.5q0 44 30.5 80.5t84 66t122.5 52.5t146 39l19 -91q-92 -19 -160.5 -43t-106 -48t-37.5 -43t46 -28.5t162 -19.5q126 -10 194 -31.5t94 -55t26 -78.5q0 -64 -44.5 -99.5t-139.5 -50.5t-246 -15z" />
    <glyph glyph-name="kafRing-ar.init" unicode="&#x6ab;" horiz-adv-x="424" 
d="M0 -5l10 99h108q64 0 95 9t41 24t10 32q0 19 -16 51t-66 81q-35 35 -71 64.5t-60.5 50.5t-24.5 30q0 22 5 45t16 33q38 40 127 86t219 109l41 -88q-80 -38 -135.5 -65t-95 -48.5t-72.5 -43.5q125 -101 178.5 -175t53.5 -141q0 -23 -9 -49.5t-36 -50t-79.5 -38.5
t-138.5 -15h-100zM337 439q-39 0 -65.5 27.5t-26.5 64.5q0 38 26.5 65.5t65.5 27.5q38 0 65 -27.5t27 -65.5q0 -37 -27 -64.5t-65 -27.5zM337 494q16 0 28 10.5t12 26.5q0 17 -12 28t-28 11t-28 -11t-12 -28q0 -16 12 -26.5t28 -10.5z" />
    <glyph glyph-name="kafRing-ar.medi" unicode="&#x6ab;" horiz-adv-x="508" 
d="M0 -5l10 99h96q68 0 102 8t44.5 20.5t10.5 27.5q0 22 -17 49.5t-44 57t-57.5 58t-57.5 53.5t-44 43t-17 26q0 54 22 78q26 27 78.5 58t122 65t144.5 71l41 -88q-93 -44 -172 -83t-137 -77q52 -45 96.5 -87.5t82 -89.5t70.5 -106q20 -38 47 -55.5t53 -23t44 -5.5
q26 0 37.5 -14t11.5 -33q0 -21 -16.5 -36.5t-42.5 -15.5q-25 0 -56.5 6.5t-62 24.5t-53.5 51q-31 -42 -84 -62t-152 -20h-100zM339 440q-39 0 -65.5 27.5t-26.5 64.5q0 38 26.5 65.5t65.5 27.5q38 0 65 -27.5t27 -65.5q0 -37 -27 -64.5t-65 -27.5zM339 495q16 0 28 10.5
t12 26.5q0 17 -12 28t-28 11t-28 -11t-12 -28q0 -16 12 -26.5t28 -10.5z" />
    <glyph glyph-name="kafRing-ar.fina" unicode="&#x6ab;" horiz-adv-x="968" 
d="M400 -21q-189 0 -279 51.5t-90 157.5q0 40 9.5 84t20.5 81l89 -21q-6 -25 -13 -57.5t-7 -57.5q0 -48 26.5 -79t91 -45.5t178.5 -14.5q116 0 181 10.5t91 27t26 33.5q0 22 -17 49.5t-44.5 57t-57.5 58t-57.5 53.5t-44.5 43t-17 26q0 54 22 78q26 27 78.5 58t122 65.5
t144.5 70.5l41 -88q-93 -44 -172 -83t-137 -77q52 -44 96.5 -86.5t82 -90t70.5 -106.5q21 -37 48 -55t52.5 -23t43.5 -5q26 0 37.5 -14t11.5 -34q0 -21 -16 -36t-43 -15q-25 0 -56 6.5t-62 24t-54 50.5q-24 -32 -68 -53.5t-122.5 -32.5t-205.5 -11zM803 440
q-39 0 -65.5 27.5t-26.5 64.5q0 38 26.5 65.5t65.5 27.5q38 0 65 -27.5t27 -65.5q0 -37 -27 -64.5t-65 -27.5zM803 495q16 0 28 10.5t12 26.5q0 17 -12 28t-28 11t-28 -11t-12 -28q0 -16 12 -26.5t28 -10.5z" />
    <glyph glyph-name="kafDotabove-ar.init" unicode="&#x6ac;" horiz-adv-x="424" 
d="M0 -5l10 99h108q64 0 95 9t41 24t10 32q0 19 -16 51t-66 81q-35 35 -71 64.5t-60.5 50.5t-24.5 30q0 22 5 45t16 33q38 40 127 86t219 109l41 -88q-80 -38 -135.5 -65t-95 -48.5t-72.5 -43.5q125 -101 178.5 -175t53.5 -141q0 -23 -9 -49.5t-36 -50t-79.5 -38.5
t-138.5 -15h-100zM188 718q-24 0 -40.5 16t-16.5 40q0 23 16.5 40t40.5 17q23 0 39.5 -17t16.5 -40q0 -24 -16.5 -40t-39.5 -16z" />
    <glyph glyph-name="kafDotabove-ar.medi" unicode="&#x6ac;" horiz-adv-x="508" 
d="M0 -5l10 99h96q68 0 102 8t44.5 20.5t10.5 27.5q0 22 -17 49.5t-44 57t-57.5 58t-57.5 53.5t-44 43t-17 26q0 54 22 78q26 27 78.5 58t122 65t144.5 71l41 -88q-93 -44 -172 -83t-137 -77q52 -45 96.5 -87.5t82 -89.5t70.5 -106q20 -38 47 -55.5t53 -23t44 -5.5
q26 0 37.5 -14t11.5 -33q0 -21 -16.5 -36.5t-42.5 -15.5q-25 0 -56.5 6.5t-62 24.5t-53.5 51q-31 -42 -84 -62t-152 -20h-100zM160 718q-24 0 -40.5 16t-16.5 40q0 23 16.5 40t40.5 17q23 0 39.5 -17t16.5 -40q0 -24 -16.5 -40t-39.5 -16z" />
    <glyph glyph-name="kafDotabove-ar.fina" unicode="&#x6ac;" horiz-adv-x="937" 
d="M400 -21q-189 0 -279 51.5t-90 157.5q0 40 9.5 84t20.5 81l89 -21q-6 -25 -13 -57.5t-7 -57.5q0 -48 26.5 -79t91 -45.5t178.5 -14.5q98 0 160 7t96 24.5t46.5 46t10.5 71.5l-20 492h99l20 -488q3 -81 32 -109t77 -28q26 0 37.5 -14t11.5 -33q0 -21 -16 -36.5t-43 -15.5
q-58 0 -92 21t-49 56q-48 -55 -145 -74.5t-251 -18.5zM368 208l-22 73q60 16 86.5 26.5t26.5 21.5t-10.5 20.5t-24.5 20.5t-24.5 26t-10.5 35q0 29 27 61t103 66l34 -66q-45 -21 -64 -35.5t-19 -26.5q0 -9 10.5 -19.5t24.5 -23.5t24.5 -29t10.5 -36t-12 -39t-49 -38
t-111 -37zM467 645q-24 0 -40.5 16t-16.5 40q0 23 16.5 40t40.5 17q23 0 39.5 -17t16.5 -40q0 -24 -16.5 -40t-39.5 -16z" />
    <glyph glyph-name="kafThreedotsbelow-ar.init" unicode="&#x6ae;" horiz-adv-x="424" 
d="M0 -5l10 99h108q64 0 95 9t41 24t10 32q0 19 -16 51t-66 81q-35 35 -71 64.5t-60.5 50.5t-24.5 30q0 22 5 45t16 33q38 40 127 86t219 109l41 -88q-80 -38 -135.5 -65t-95 -48.5t-72.5 -43.5q125 -101 178.5 -175t53.5 -141q0 -23 -9 -49.5t-36 -50t-79.5 -38.5
t-138.5 -15h-100zM112 -133q-19 0 -32.5 13t-13.5 33q0 19 13.5 32.5t32.5 13.5t33 -13.5t14 -32.5q0 -20 -14 -33t-33 -13zM236 -133q-20 0 -33.5 13t-13.5 33q0 19 13.5 32.5t33.5 13.5q19 0 32 -13.5t13 -32.5q0 -20 -13 -33t-32 -13zM174 -235q-19 0 -33 13.5t-14 32.5
t14 33t33 14t32.5 -14t13.5 -33t-13.5 -32.5t-32.5 -13.5z" />
    <glyph glyph-name="kafThreedotsbelow-ar.medi" unicode="&#x6ae;" horiz-adv-x="508" 
d="M0 -5l10 99h96q68 0 102 8t44.5 20.5t10.5 27.5q0 22 -17 49.5t-44 57t-57.5 58t-57.5 53.5t-44 43t-17 26q0 54 22 78q26 27 78.5 58t122 65t144.5 71l41 -88q-93 -44 -172 -83t-137 -77q52 -45 96.5 -87.5t82 -89.5t70.5 -106q20 -38 47 -55.5t53 -23t44 -5.5
q26 0 37.5 -14t11.5 -33q0 -21 -16.5 -36.5t-42.5 -15.5q-25 0 -56.5 6.5t-62 24.5t-53.5 51q-31 -42 -84 -62t-152 -20h-100zM112 -133q-19 0 -32.5 13t-13.5 33q0 19 13.5 32.5t32.5 13.5t33 -13.5t14 -32.5q0 -20 -14 -33t-33 -13zM236 -133q-20 0 -33.5 13t-13.5 33
q0 19 13.5 32.5t33.5 13.5q19 0 32 -13.5t13 -32.5q0 -20 -13 -33t-32 -13zM174 -235q-19 0 -33 13.5t-14 32.5t14 33t33 14t32.5 -14t13.5 -33t-13.5 -32.5t-32.5 -13.5z" />
    <glyph glyph-name="kafThreedotsbelow-ar.fina" unicode="&#x6ae;" horiz-adv-x="937" 
d="M400 -21q-189 0 -279 51.5t-90 157.5q0 40 9.5 84t20.5 81l89 -21q-6 -25 -13 -57.5t-7 -57.5q0 -48 26.5 -79t91 -45.5t178.5 -14.5q98 0 160 7t96 24.5t46.5 46t10.5 71.5l-20 492h99l20 -488q3 -81 32 -109t77 -28q26 0 37.5 -14t11.5 -33q0 -21 -16 -36.5t-43 -15.5
q-58 0 -92 21t-49 56q-48 -55 -145 -74.5t-251 -18.5zM368 208l-22 73q60 16 86.5 26.5t26.5 21.5t-10.5 20.5t-24.5 20.5t-24.5 26t-10.5 35q0 29 27 61t103 66l34 -66q-45 -21 -64 -35.5t-19 -26.5q0 -9 10.5 -19.5t24.5 -23.5t24.5 -29t10.5 -36t-12 -39t-49 -38
t-111 -37zM355 -154q-19 0 -32.5 13t-13.5 33q0 19 13.5 32.5t32.5 13.5t33 -13.5t14 -32.5q0 -20 -14 -33t-33 -13zM479 -154q-20 0 -33.5 13t-13.5 33q0 19 13.5 32.5t33.5 13.5q19 0 32 -13.5t13 -32.5q0 -20 -13 -33t-32 -13zM417 -256q-19 0 -33 13.5t-14 32.5t14 33
t33 14t32.5 -14t13.5 -33t-13.5 -32.5t-32.5 -13.5z" />
    <glyph glyph-name="gafRing-ar.init" unicode="&#x6b0;" horiz-adv-x="424" 
d="M0 -5l10 99h108q64 0 95 9t41 24t10 32q0 19 -16 51t-66 81q-35 35 -71 64.5t-60.5 50.5t-24.5 30q0 22 5 45t16 33q38 40 127 86t219 109l41 -88q-80 -38 -135.5 -65t-95 -48.5t-72.5 -43.5q125 -101 178.5 -175t53.5 -141q0 -23 -9 -49.5t-36 -50t-79.5 -38.5
t-138.5 -15h-100zM0 560l-41 64q62 38 153.5 91t220.5 120l33 -69q-131 -68 -216.5 -117.5t-149.5 -88.5zM340 441q-39 0 -65.5 27.5t-26.5 64.5q0 38 26.5 65.5t65.5 27.5q38 0 65 -27.5t27 -65.5q0 -37 -27 -64.5t-65 -27.5zM340 496q16 0 28 10.5t12 26.5q0 17 -12 28
t-28 11t-28 -11t-12 -28q0 -16 12 -26.5t28 -10.5z" />
    <glyph glyph-name="gafRing-ar.medi" unicode="&#x6b0;" horiz-adv-x="508" 
d="M0 -5l10 99h96q68 0 102 8t44.5 20.5t10.5 27.5q0 22 -17 49.5t-44 57t-57.5 58t-57.5 53.5t-44 43t-17 26q0 54 22 78q26 27 78.5 58t122 65t144.5 71l41 -88q-93 -44 -172 -83t-137 -77q52 -45 96.5 -87.5t82 -89.5t70.5 -106q20 -38 47 -55.5t53 -23t44 -5.5
q26 0 37.5 -14t11.5 -33q0 -21 -16.5 -36.5t-42.5 -15.5q-25 0 -56.5 6.5t-62 24.5t-53.5 51q-31 -42 -84 -62t-152 -20h-100zM2 560l-41 64q62 38 153.5 91t220.5 120l33 -69q-131 -68 -216.5 -117.5t-149.5 -88.5zM338 439q-39 0 -65.5 27.5t-26.5 64.5q0 38 26.5 65.5
t65.5 27.5q38 0 65 -27.5t27 -65.5q0 -37 -27 -64.5t-65 -27.5zM338 494q16 0 28 10.5t12 26.5q0 17 -12 28t-28 11t-28 -11t-12 -28q0 -16 12 -26.5t28 -10.5z" />
    <glyph glyph-name="gafRing-ar.fina" unicode="&#x6b0;" horiz-adv-x="968" 
d="M400 -21q-189 0 -279 51.5t-90 157.5q0 40 9.5 84t20.5 81l89 -21q-6 -25 -13 -57.5t-7 -57.5q0 -48 26.5 -79t91 -45.5t178.5 -14.5q116 0 181 10.5t91 27t26 33.5q0 22 -17 49.5t-44.5 57t-57.5 58t-57.5 53.5t-44.5 43t-17 26q0 54 22 78q26 27 78.5 58t122 65.5
t144.5 70.5l41 -88q-93 -44 -172 -83t-137 -77q52 -44 96.5 -86.5t82 -90t70.5 -106.5q21 -37 48 -55t52.5 -23t43.5 -5q26 0 37.5 -14t11.5 -34q0 -21 -16 -36t-43 -15q-25 0 -56 6.5t-62 24t-54 50.5q-24 -32 -68 -53.5t-122.5 -32.5t-205.5 -11zM460 560l-41 64
q62 38 153.5 91t220.5 120l33 -69q-131 -68 -216.5 -117.5t-149.5 -88.5zM807 442q-39 0 -65.5 27.5t-26.5 64.5q0 38 26.5 65.5t65.5 27.5q38 0 65 -27.5t27 -65.5q0 -37 -27 -64.5t-65 -27.5zM807 497q16 0 28 10.5t12 26.5q0 17 -12 28t-28 11t-28 -11t-12 -28
q0 -16 12 -26.5t28 -10.5z" />
    <glyph glyph-name="gafTwodotsbelow-ar.init" unicode="&#x6b2;" horiz-adv-x="424" 
d="M0 -5l10 99h108q64 0 95 9t41 24t10 32q0 19 -16 51t-66 81q-35 35 -71 64.5t-60.5 50.5t-24.5 30q0 22 5 45t16 33q38 40 127 86t219 109l41 -88q-80 -38 -135.5 -65t-95 -48.5t-72.5 -43.5q125 -101 178.5 -175t53.5 -141q0 -23 -9 -49.5t-36 -50t-79.5 -38.5
t-138.5 -15h-100zM0 560l-41 64q62 38 153.5 91t220.5 120l33 -69q-131 -68 -216.5 -117.5t-149.5 -88.5zM240 -202q-23 0 -39.5 16t-16.5 39t16.5 39.5t39.5 16.5q22 0 38.5 -16.5t16.5 -39.5t-16.5 -39t-38.5 -16zM93 -202q-24 0 -40 16t-16 39t16 39.5t40 16.5
q23 0 38.5 -16.5t15.5 -39.5t-15.5 -39t-38.5 -16z" />
    <glyph glyph-name="gafTwodotsbelow-ar.medi" unicode="&#x6b2;" horiz-adv-x="508" 
d="M0 -5l10 99h96q68 0 102 8t44.5 20.5t10.5 27.5q0 22 -17 49.5t-44 57t-57.5 58t-57.5 53.5t-44 43t-17 26q0 54 22 78q26 27 78.5 58t122 65t144.5 71l41 -88q-93 -44 -172 -83t-137 -77q52 -45 96.5 -87.5t82 -89.5t70.5 -106q20 -38 47 -55.5t53 -23t44 -5.5
q26 0 37.5 -14t11.5 -33q0 -21 -16.5 -36.5t-42.5 -15.5q-25 0 -56.5 6.5t-62 24.5t-53.5 51q-31 -42 -84 -62t-152 -20h-100zM2 560l-41 64q62 38 153.5 91t220.5 120l33 -69q-131 -68 -216.5 -117.5t-149.5 -88.5zM240 -202q-23 0 -39.5 16t-16.5 39t16.5 39.5t39.5 16.5
q22 0 38.5 -16.5t16.5 -39.5t-16.5 -39t-38.5 -16zM93 -202q-24 0 -40 16t-16 39t16 39.5t40 16.5q23 0 38.5 -16.5t15.5 -39.5t-15.5 -39t-38.5 -16z" />
    <glyph glyph-name="gafTwodotsbelow-ar.fina" unicode="&#x6b2;" horiz-adv-x="968" 
d="M400 -21q-189 0 -279 51.5t-90 157.5q0 40 9.5 84t20.5 81l89 -21q-6 -25 -13 -57.5t-7 -57.5q0 -48 26.5 -79t91 -45.5t178.5 -14.5q116 0 181 10.5t91 27t26 33.5q0 22 -17 49.5t-44.5 57t-57.5 58t-57.5 53.5t-44.5 43t-17 26q0 54 22 78q26 27 78.5 58t122 65.5
t144.5 70.5l41 -88q-93 -44 -172 -83t-137 -77q52 -44 96.5 -86.5t82 -90t70.5 -106.5q21 -37 48 -55t52.5 -23t43.5 -5q26 0 37.5 -14t11.5 -34q0 -21 -16 -36t-43 -15q-25 0 -56 6.5t-62 24t-54 50.5q-24 -32 -68 -53.5t-122.5 -32.5t-205.5 -11zM460 560l-41 64
q62 38 153.5 91t220.5 120l33 -69q-131 -68 -216.5 -117.5t-149.5 -88.5zM487 -223q-23 0 -39.5 16t-16.5 39t16.5 39.5t39.5 16.5q22 0 38.5 -16.5t16.5 -39.5t-16.5 -39t-38.5 -16zM340 -223q-24 0 -40 16t-16 39t16 39.5t40 16.5q23 0 38.5 -16.5t15.5 -39.5t-15.5 -39
t-38.5 -16z" />
    <glyph glyph-name="gafThreedots-ar.init" unicode="&#x6b4;" horiz-adv-x="424" 
d="M0 -5l10 99h108q64 0 95 9t41 24t10 32q0 19 -16 51t-66 81q-35 35 -71 64.5t-60.5 50.5t-24.5 30q0 22 5 45t16 33q38 40 127 86t219 109l41 -88q-80 -38 -135.5 -65t-95 -48.5t-72.5 -43.5q125 -101 178.5 -175t53.5 -141q0 -23 -9 -49.5t-36 -50t-79.5 -38.5
t-138.5 -15h-100zM0 560l-41 64q62 38 153.5 91t220.5 120l33 -69q-131 -68 -216.5 -117.5t-149.5 -88.5zM70.9463 879.182q-21.876 0 -36.916 15.0391q-15.0391 15.04 -15.0391 36.916q0 20.9648 15.0391 36.46q15.04 15.4951 36.916 15.4951q20.9648 0 36.0039 -15.4951
q15.04 -15.4951 15.04 -36.46q0 -21.876 -15.04 -36.916q-15.0391 -15.0391 -36.0039 -15.0391zM178.503 808.996q-20.9639 0 -36.46 15.0391q-15.4951 15.04 -15.4951 36.916q0 20.9648 15.4951 36.46q15.4961 15.4951 36.46 15.4951q20.9648 0 36.0049 -15.4951
q15.0391 -15.4951 15.0391 -36.46q0 -21.876 -15.0391 -36.916q-15.04 -15.0391 -36.0049 -15.0391zM64.5664 753.395q-21.877 0 -36.916 15.0391q-15.04 15.04 -15.04 36.0049q0 20.9639 15.04 36.46q15.0391 15.4951 36.916 15.4951q20.9639 0 36.0039 -15.4951
q15.0391 -15.4961 15.0391 -36.46q0 -20.9648 -15.0391 -36.0049q-15.04 -15.0391 -36.0039 -15.0391z" />
    <glyph glyph-name="gafThreedots-ar.medi" unicode="&#x6b4;" horiz-adv-x="508" 
d="M0 -5l10 99h96q68 0 102 8t44.5 20.5t10.5 27.5q0 22 -17 49.5t-44 57t-57.5 58t-57.5 53.5t-44 43t-17 26q0 54 22 78q26 27 78.5 58t122 65t144.5 71l41 -88q-93 -44 -172 -83t-137 -77q52 -45 96.5 -87.5t82 -89.5t70.5 -106q20 -38 47 -55.5t53 -23t44 -5.5
q26 0 37.5 -14t11.5 -33q0 -21 -16.5 -36.5t-42.5 -15.5q-25 0 -56.5 6.5t-62 24.5t-53.5 51q-31 -42 -84 -62t-152 -20h-100zM2 560l-41 64q62 38 153.5 91t220.5 120l33 -69q-131 -68 -216.5 -117.5t-149.5 -88.5zM67.9463 879.182q-21.876 0 -36.916 15.0391
q-15.0391 15.04 -15.0391 36.916q0 20.9648 15.0391 36.46q15.04 15.4951 36.916 15.4951q20.9648 0 36.0039 -15.4951q15.04 -15.4951 15.04 -36.46q0 -21.876 -15.04 -36.916q-15.0391 -15.0391 -36.0039 -15.0391zM175.503 808.996q-20.9639 0 -36.46 15.0391
q-15.4951 15.04 -15.4951 36.916q0 20.9648 15.4951 36.46q15.4961 15.4951 36.46 15.4951q20.9648 0 36.0049 -15.4951q15.0391 -15.4951 15.0391 -36.46q0 -21.876 -15.0391 -36.916q-15.04 -15.0391 -36.0049 -15.0391zM61.5664 753.395q-21.877 0 -36.916 15.0391
q-15.04 15.04 -15.04 36.0049q0 20.9639 15.04 36.46q15.0391 15.4951 36.916 15.4951q20.9639 0 36.0039 -15.4951q15.0391 -15.4961 15.0391 -36.46q0 -20.9648 -15.0391 -36.0049q-15.04 -15.0391 -36.0039 -15.0391z" />
    <glyph glyph-name="gafThreedots-ar.fina" unicode="&#x6b4;" horiz-adv-x="968" 
d="M400 -21q-189 0 -279 51.5t-90 157.5q0 40 9.5 84t20.5 81l89 -21q-6 -25 -13 -57.5t-7 -57.5q0 -48 26.5 -79t91 -45.5t178.5 -14.5q116 0 181 10.5t91 27t26 33.5q0 22 -17 49.5t-44.5 57t-57.5 58t-57.5 53.5t-44.5 43t-17 26q0 54 22 78q26 27 78.5 58t122 65.5
t144.5 70.5l41 -88q-93 -44 -172 -83t-137 -77q52 -44 96.5 -86.5t82 -90t70.5 -106.5q21 -37 48 -55t52.5 -23t43.5 -5q26 0 37.5 -14t11.5 -34q0 -21 -16 -36t-43 -15q-25 0 -56 6.5t-62 24t-54 50.5q-24 -32 -68 -53.5t-122.5 -32.5t-205.5 -11zM460 560l-41 64
q62 38 153.5 91t220.5 120l33 -69q-131 -68 -216.5 -117.5t-149.5 -88.5zM520.946 882.182q-21.876 0 -36.916 15.0391q-15.0391 15.04 -15.0391 36.916q0 20.9648 15.0391 36.46q15.04 15.4951 36.916 15.4951q20.9648 0 36.0039 -15.4951q15.04 -15.4951 15.04 -36.46
q0 -21.876 -15.04 -36.916q-15.0391 -15.0391 -36.0039 -15.0391zM628.503 811.996q-20.9639 0 -36.46 15.0391q-15.4951 15.04 -15.4951 36.916q0 20.9648 15.4951 36.46q15.4961 15.4951 36.46 15.4951q20.9648 0 36.0049 -15.4951q15.0391 -15.4951 15.0391 -36.46
q0 -21.876 -15.0391 -36.916q-15.04 -15.0391 -36.0049 -15.0391zM514.566 756.395q-21.877 0 -36.916 15.0391q-15.04 15.04 -15.04 36.0049q0 20.9639 15.04 36.46q15.0391 15.4951 36.916 15.4951q20.9639 0 36.0039 -15.4951q15.0391 -15.4961 15.0391 -36.46
q0 -20.9648 -15.0391 -36.0049q-15.04 -15.0391 -36.0039 -15.0391z" />
    <glyph glyph-name="lamVabove-ar.init" unicode="&#x6b5;" horiz-adv-x="271" 
d="M0 -5l9 99q53 0 75.5 10.5t26.5 38t2 78.5l-19 498h99l20 -495q2 -55 -4 -97.5t-28 -72t-65.5 -44.5t-115.5 -15zM110 846q-9 20 -25.5 53t-33.5 66.5t-30 54.5l50 27q7 -11 20 -34.5t27 -50.5t24 -49q11 26 23.5 54.5t23 51t15.5 30.5l49 -20q-5 -10 -16 -32.5
t-23.5 -50t-23.5 -53t-17 -41.5z" />
    <glyph glyph-name="lamVabove-ar.medi" unicode="&#x6b5;" horiz-adv-x="313" 
d="M0 -5l9 99q54 0 76 10.5t25.5 38t2.5 78.5l-17 498h100l17 -497q2 -76 31 -102t79 -26q25 0 37 -14t12 -33q0 -21 -16.5 -36.5t-42.5 -15.5q-51 0 -85 18t-50 50q-22 -36 -65 -52t-113 -16zM122 846q-9 20 -25.5 53t-33.5 66.5t-30 54.5l50 27q7 -11 20 -34.5t27 -50.5
t24 -49q11 26 23.5 54.5t23 51t15.5 30.5l49 -20q-5 -10 -16 -32.5t-23.5 -50t-23.5 -53t-17 -41.5z" />
    <glyph glyph-name="lamVabove-ar.fina" unicode="&#x6b5;" horiz-adv-x="748" 
d="M29 8q0 35 9.5 81.5t35.5 105.5l87 -32q-17 -43 -25 -78t-8 -65q0 -50 25.5 -84.5t68 -52t93.5 -17.5q93 0 145.5 32.5t73 90t17.5 132.5l-22 598h100l16 -497q2 -76 32.5 -102t80.5 -26q26 0 37.5 -14t11.5 -33q0 -21 -16.5 -36.5t-42.5 -15.5q-34 0 -59.5 10.5
t-42.5 29.5q-11 -78 -48.5 -138t-108 -94.5t-179.5 -34.5q-75 0 -139 27.5t-103 81t-39 131.5zM278 584q-9 20 -25.5 53t-33.5 66.5t-30 54.5l50 27q7 -11 20 -34.5t27 -50.5t24 -49q11 26 23.5 54.5t23 51t15.5 30.5l49 -20q-5 -10 -16 -32.5t-23.5 -50t-23.5 -53
t-17 -41.5z" />
    <glyph glyph-name="lamDotabove-ar.init" unicode="&#x6b6;" horiz-adv-x="271" 
d="M0 -5l9 99q53 0 75.5 10.5t26.5 38t2 78.5l-19 498h99l20 -495q2 -55 -4 -97.5t-28 -72t-65.5 -44.5t-115.5 -15zM141 820q-24 0 -40.5 16t-16.5 40q0 23 16.5 40t40.5 17q23 0 39.5 -17t16.5 -40q0 -24 -16.5 -40t-39.5 -16z" />
    <glyph glyph-name="lamDotabove-ar.medi" unicode="&#x6b6;" horiz-adv-x="313" 
d="M0 -5l9 99q54 0 76 10.5t25.5 38t2.5 78.5l-17 498h100l17 -497q2 -76 31 -102t79 -26q25 0 37 -14t12 -33q0 -21 -16.5 -36.5t-42.5 -15.5q-51 0 -85 18t-50 50q-22 -36 -65 -52t-113 -16zM153 820q-24 0 -40.5 16t-16.5 40q0 23 16.5 40t40.5 17q23 0 39.5 -17
t16.5 -40q0 -24 -16.5 -40t-39.5 -16z" />
    <glyph glyph-name="lamDotabove-ar.fina" unicode="&#x6b6;" horiz-adv-x="748" 
d="M29 8q0 35 9.5 81.5t35.5 105.5l87 -32q-17 -43 -25 -78t-8 -65q0 -50 25.5 -84.5t68 -52t93.5 -17.5q93 0 145.5 32.5t73 90t17.5 132.5l-22 598h100l16 -497q2 -76 32.5 -102t80.5 -26q26 0 37.5 -14t11.5 -33q0 -21 -16.5 -36.5t-42.5 -15.5q-34 0 -59.5 10.5
t-42.5 29.5q-11 -78 -48.5 -138t-108 -94.5t-179.5 -34.5q-75 0 -139 27.5t-103 81t-39 131.5zM309 558q-24 0 -40.5 16t-16.5 40q0 23 16.5 40t40.5 17q23 0 39.5 -17t16.5 -40q0 -24 -16.5 -40t-39.5 -16z" />
    <glyph glyph-name="lamThreedotsabove-ar.init" unicode="&#x6b7;" horiz-adv-x="271" 
d="M0 -5l9 99q53 0 75.5 10.5t26.5 38t2 78.5l-19 498h99l20 -495q2 -55 -4 -97.5t-28 -72t-65.5 -44.5t-115.5 -15zM141 927q-22 0 -37.5 15.5t-15.5 37.5q0 23 15.5 38.5t37.5 15.5t37.5 -15.5t15.5 -38.5q0 -22 -15.5 -37.5t-37.5 -15.5zM70 811q-23 0 -38.5 15.5
t-15.5 37.5t15.5 37.5t38.5 15.5q22 0 37.5 -15.5t15.5 -37.5t-15.5 -37.5t-37.5 -15.5zM212 811q-23 0 -38.5 15.5t-15.5 37.5t15.5 37.5t38.5 15.5q22 0 37 -15.5t15 -37.5t-15 -37.5t-37 -15.5z" />
    <glyph glyph-name="lamThreedotsabove-ar.medi" unicode="&#x6b7;" horiz-adv-x="313" 
d="M0 -5l9 99q54 0 76 10.5t25.5 38t2.5 78.5l-17 498h100l17 -497q2 -76 31 -102t79 -26q25 0 37 -14t12 -33q0 -21 -16.5 -36.5t-42.5 -15.5q-51 0 -85 18t-50 50q-22 -36 -65 -52t-113 -16zM149 927q-22 0 -37.5 15.5t-15.5 37.5q0 23 15.5 38.5t37.5 15.5t37.5 -15.5
t15.5 -38.5q0 -22 -15.5 -37.5t-37.5 -15.5zM78 811q-23 0 -38.5 15.5t-15.5 37.5t15.5 37.5t38.5 15.5q22 0 37.5 -15.5t15.5 -37.5t-15.5 -37.5t-37.5 -15.5zM220 811q-23 0 -38.5 15.5t-15.5 37.5t15.5 37.5t38.5 15.5q22 0 37 -15.5t15 -37.5t-15 -37.5t-37 -15.5z" />
    <glyph glyph-name="lamThreedotsabove-ar.fina" unicode="&#x6b7;" horiz-adv-x="748" 
d="M29 8q0 35 9.5 81.5t35.5 105.5l87 -32q-17 -43 -25 -78t-8 -65q0 -50 25.5 -84.5t68 -52t93.5 -17.5q93 0 145.5 32.5t73 90t17.5 132.5l-22 598h100l16 -497q2 -76 32.5 -102t80.5 -26q26 0 37.5 -14t11.5 -33q0 -21 -16.5 -36.5t-42.5 -15.5q-34 0 -59.5 10.5
t-42.5 29.5q-11 -78 -48.5 -138t-108 -94.5t-179.5 -34.5q-75 0 -139 27.5t-103 81t-39 131.5zM307 674q-22 0 -37.5 15.5t-15.5 37.5q0 23 15.5 38.5t37.5 15.5t37.5 -15.5t15.5 -38.5q0 -22 -15.5 -37.5t-37.5 -15.5zM236 558q-23 0 -38.5 15.5t-15.5 37.5t15.5 37.5
t38.5 15.5q22 0 37.5 -15.5t15.5 -37.5t-15.5 -37.5t-37.5 -15.5zM378 558q-23 0 -38.5 15.5t-15.5 37.5t15.5 37.5t38.5 15.5q22 0 37 -15.5t15 -37.5t-15 -37.5t-37 -15.5z" />
    <glyph glyph-name="lamThreedotsbelow-ar.init" unicode="&#x6b8;" horiz-adv-x="271" 
d="M0 -5l9 99q53 0 75.5 10.5t26.5 38t2 78.5l-19 498h99l20 -495q2 -55 -4 -97.5t-28 -72t-65.5 -44.5t-115.5 -15zM66 -133q-19 0 -32.5 13t-13.5 33q0 19 13.5 32.5t32.5 13.5t33 -13.5t14 -32.5q0 -20 -14 -33t-33 -13zM190 -133q-20 0 -33.5 13t-13.5 33
q0 19 13.5 32.5t33.5 13.5q19 0 32 -13.5t13 -32.5q0 -20 -13 -33t-32 -13zM128 -235q-19 0 -33 13.5t-14 32.5t14 33t33 14t32.5 -14t13.5 -33t-13.5 -32.5t-32.5 -13.5z" />
    <glyph glyph-name="lamThreedotsbelow-ar.medi" unicode="&#x6b8;" horiz-adv-x="313" 
d="M0 -5l9 99q54 0 76 10.5t25.5 38t2.5 78.5l-17 498h100l17 -497q2 -76 31 -102t79 -26q25 0 37 -14t12 -33q0 -21 -16.5 -36.5t-42.5 -15.5q-51 0 -85 18t-50 50q-22 -36 -65 -52t-113 -16zM98 -134q-19 0 -32.5 13t-13.5 33q0 19 13.5 32.5t32.5 13.5t33 -13.5t14 -32.5
q0 -20 -14 -33t-33 -13zM222 -134q-20 0 -33.5 13t-13.5 33q0 19 13.5 32.5t33.5 13.5q19 0 32 -13.5t13 -32.5q0 -20 -13 -33t-32 -13zM160 -236q-19 0 -33 13.5t-14 32.5t14 33t33 14t32.5 -14t13.5 -33t-13.5 -32.5t-32.5 -13.5z" />
    <glyph glyph-name="lamThreedotsbelow-ar.fina" unicode="&#x6b8;" horiz-adv-x="746" 
d="M29 186q0 35 9.5 82t35.5 106l87 -33q-17 -43 -25 -77.5t-8 -65.5q0 -50 25.5 -84t68 -52t93.5 -18q93 0 145 33t72 93t16 141l-19 408h100l16 -477q3 -82 32 -115t79 -33q26 0 37.5 -14t11.5 -33q0 -21 -16.5 -36.5t-42.5 -15.5q-55 0 -95.5 23.5t-60.5 66.5
q-22 -39 -57.5 -70t-90 -49.5t-132.5 -18.5q-75 0 -139 27.5t-103 81t-39 130.5zM262.658 -170.374q-18.1963 0 -31.125 12.4502q-12.9287 12.4492 -12.9287 31.6035q0 18.1963 12.9287 31.126q12.9287 12.9287 31.125 12.9287t31.6045 -12.9287
q13.4082 -12.9297 13.4082 -31.126q0 -19.1543 -13.4082 -31.6035q-13.4082 -12.4502 -31.6045 -12.4502zM381.414 -170.374q-19.1543 0 -32.083 12.4502q-12.9297 12.4492 -12.9297 31.6035q0 18.1963 12.9297 31.126q12.9287 12.9287 32.083 12.9287
q18.1963 0 30.6465 -12.9287q12.4492 -12.9297 12.4492 -31.126q0 -19.1543 -12.4492 -31.6035q-12.4502 -12.4502 -30.6465 -12.4502zM322.036 -268.061q-18.1963 0 -31.6045 12.9297q-13.4072 12.9287 -13.4072 31.125t13.4072 31.6045q13.4082 13.4072 31.6045 13.4072
t31.125 -13.4072q12.9297 -13.4082 12.9297 -31.6045t-12.9297 -31.125q-12.9287 -12.9297 -31.125 -12.9297z" />
    <glyph glyph-name="noonDotbelow-ar.init" unicode="&#x6b9;" horiz-adv-x="283" 
d="M0 -5l10 99q70 0 99 15t29 68q0 26 -8 62t-20.5 75.5t-26.5 77.5l98 32q13 -33 24.5 -75t19.5 -84.5t8 -76.5q0 -74 -27.5 -116t-79.5 -59.5t-126 -17.5zM133 522q-24 0 -40.5 16t-16.5 40q0 23 16.5 40t40.5 17q23 0 39.5 -17t16.5 -40q0 -24 -16.5 -40t-39.5 -16z
M112 -204q-23 0 -39.5 16t-16.5 39q0 22 16.5 39t39.5 17q22 0 38.5 -17t16.5 -39q0 -23 -16.5 -39t-38.5 -16z" />
    <glyph glyph-name="noonDotbelow-ar.medi" unicode="&#x6b9;" horiz-adv-x="355" 
d="M0 -5l10 99q41 0 64.5 7.5t36.5 29t22 62.5t21 109l94 -17q-6 -26 -12.5 -60t-6.5 -59q0 -22 9 -38t38.5 -25t88.5 -9q26 0 37.5 -14t11.5 -33q0 -21 -16 -36.5t-43 -15.5q-79 0 -119 17t-56 54q-31 -45 -74 -58t-106 -13zM195 402q-24 0 -40.5 16t-16.5 40q0 23 16.5 40
t40.5 17q23 0 39.5 -17t16.5 -40q0 -24 -16.5 -40t-39.5 -16zM172 -204q-23 0 -39.5 16t-16.5 39q0 22 16.5 39t39.5 17q22 0 38.5 -17t16.5 -39q0 -23 -16.5 -39t-38.5 -16z" />
    <glyph glyph-name="noonDotbelow-ar.fina" unicode="&#x6b9;" horiz-adv-x="752" 
d="M29 156q0 35 9.5 81.5t35.5 105.5l87 -32q-17 -43 -25 -78t-8 -65q0 -80 56 -116.5t141 -36.5q88 0 137.5 24.5t70 64.5t20.5 86q0 58 -14.5 114.5t-33.5 118.5l99 26q10 -38 16.5 -64.5t13.5 -50.5t17 -57q16 -53 30.5 -94.5t33.5 -65t47 -23.5q26 0 37.5 -14t11.5 -33
q0 -21 -16 -36.5t-43 -15.5q-41 0 -71.5 20.5t-52.5 67.5q-30 -73 -102.5 -120t-203.5 -47q-80 0 -146.5 25.5t-106.5 79t-40 135.5zM338 554q-24 0 -40.5 16t-16.5 40q0 23 16.5 40t40.5 17q23 0 39.5 -17t16.5 -40q0 -24 -16.5 -40t-39.5 -16zM321 -269q-23 0 -39.5 16
t-16.5 39t16.5 40t39.5 17q22 0 38.5 -17t16.5 -40t-16.5 -39t-38.5 -16z" />
    </font>
</defs>
</svg>
