<?xml version="1.0" standalone="no"?>
<!DOCTYPE svg PUBLIC "-//W3C//DTD SVG 1.1//EN" "http://www.w3.org/Graphics/SVG/1.1/DTD/svg11.dtd" >
<svg xmlns="http://www.w3.org/2000/svg" xmlns:xlink="http://www.w3.org/1999/xlink" version="1.1">
<metadata>
Created by FontForge 20170731 at Wed Sep 20 00:59:35 2017
 By Aleksey,,,
Copyright 2016 Google Inc. All Rights Reserved.
</metadata>
<defs>
<font id="NotoSansArabicUI-Light" horiz-adv-x="0" >
  <font-face 
    font-family="Noto Sans Arabic UI Lt"
    font-weight="300"
    font-stretch="normal"
    units-per-em="1000"
    panose-1="2 11 4 2 4 5 4 2 2 4"
    ascent="800"
    descent="-200"
    bbox="-110 -292 2415 1055"
    underline-thickness="50"
    underline-position="-175"
    unicode-range="U+0020-FEFC"
  />
<missing-glyph horiz-adv-x="600" 
d="M100 0v714h398v-714h-398zM138 37h323v639h-323v-639z" />
    <glyph glyph-name="uniFD82" unicode="&#xfee0;&#xfea4;&#xfef0;" horiz-adv-x="1655" arabic-form="final" 
d="M1368 -5l6 53q60 0 85.5 16.5t30 51t2.5 89.5l-18 509h54l16 -507q2 -62 15 -96.5t38.5 -48.5t64.5 -14q14 0 19.5 -7.5t5.5 -17.5q0 -11 -9 -19.5t-23 -8.5q-54 0 -84 23t-42 55q-16 -37 -53 -57.5t-108 -20.5zM746 -5l6 53q112 0 205 32t193 96q-56 45 -116 72t-130 27
q-25 0 -46 -2.5t-48 -10.5l-10 50q26 8 52 12t52 4q53 0 94.5 -13t75 -32t62 -38t54.5 -32t54 -13h23l5 -47q-20 0 -38.5 -4t-36.5 -10q13 -41 35.5 -60.5t57 -25t84.5 -5.5q14 0 20 -7.5t6 -17.5q0 -11 -9 -19.5t-23 -8.5q-53 0 -95.5 7t-72.5 34t-44 85q-35 -17 -73 -39
t-85 -41.5t-108.5 -32.5t-143.5 -13zM40 -12q0 37 10 81t37 105l47 -20q-40 -92 -40 -161q0 -83 68 -127t188 -44q88 0 153 23t101 58t36 72q0 23 -22.5 40.5t-58 31.5t-75.5 27l14 53q72 -30 117.5 -47.5t76.5 -24.5t60 -7q15 0 20.5 -7.5t5.5 -17.5q0 -11 -9 -19.5
t-27 -8.5q-11 0 -30.5 2.5t-33.5 6.5q6 -10 8.5 -20t2.5 -18q0 -33 -22.5 -67.5t-66.5 -64t-109 -47.5t-151 -18q-84 0 -152 23.5t-108 71.5t-40 124z" />
    <glyph glyph-name="uniFDF2" unicode="&#x627;&#xfedf;&#xfee0;&#xfeea;" horiz-adv-x="1232" arabic-form="isolated" 
d="M476 -5q-62 0 -103.5 20t-56.5 83q-52 -12 -101.5 -10t-89 17t-62.5 43t-23 68q0 52 34 99t91.5 80t128.5 45l-3 76h53l16 -348q3 -50 15.5 -75.5t38.5 -35t72 -9.5q60 0 85 16.5t29 51t2 89.5l-12 363h54l12 -361q2 -62 14.5 -96.5t38.5 -48.5t67 -14q58 0 83 13t30 44
t3 85l-20 524h52l20 -518q3 -69 -8.5 -113.5t-50.5 -66t-119 -21.5q-54 0 -84 23t-42 56q-16 -38 -53 -58.5t-111 -20.5zM1105 0l-20 714h53l20 -714h-53zM308 147l-11 239q-59 -8 -105 -33t-73 -59.5t-27 -69.5q0 -30 20.5 -48.5t53.5 -27t70.5 -8.5t71.5 7zM544 609
q-36 0 -50 24t-14 57q0 21 6 54l36 10q-4 -18 -5.5 -33t-1.5 -25q0 -21 7.5 -34.5t26.5 -13.5q17 0 29 16.5t13 61.5v46l35 13v-71q0 -14 8 -24.5t28 -10.5t28 13.5t8 35.5q0 20 -4 38.5t-11 35.5l33 10q8 -16 14 -40t6 -46q0 -34 -17 -59t-55 -25q-32 0 -49 20
q-8 -23 -26 -38t-45 -15zM584 822l-6 173h39l6 -173h-39z" />
    <glyph glyph-name="uniFEF5" unicode="&#xfedf;&#xfe82;" horiz-adv-x="575" arabic-form="isolated" 
d="M387 532q0 27 -3 60.5t-7.5 64.5t-8.5 52l54 7q4 -20 8 -52.5t7 -67.5t3 -62q0 -119 -46 -222q56 -55 81 -99t25 -87q0 -26 -12.5 -55.5t-46 -50t-96.5 -20.5h-236v59q81 57 136 118t88 124q-54 49 -128 105t-163 122l32 44q91 -69 160.5 -123.5t119.5 -99.5q17 44 25 90
t8 93zM180 53h172q41 0 62.5 11.5t29.5 29t8 36.5q0 29 -21 62.5t-60 72.5q-65 -119 -191 -212zM451 790q-29 0 -52.5 10.5t-44 20.5t-38.5 10q-16 0 -31 -9t-31 -25l-26 23q20 23 41.5 38t48.5 15q24 0 45 -10t42.5 -20.5t46.5 -10.5q18 0 34.5 7t38.5 23l21 -29
q-28 -26 -52 -34.5t-43 -8.5z" />
    <glyph glyph-name="uniFEF6" unicode="&#xfee0;&#xfe82;" horiz-adv-x="560" arabic-form="final" 
d="M140 -8q-27 0 -54.5 4.5t-38.5 6.5l7 52q99 -20 179 4t122 104q-55 89 -125 176.5t-173 181.5l35 37q103 -98 170 -181t115 -158q15 54 15 120l-14 375h53l19 -507q2 -57 8.5 -92t30.5 -51t77 -16q14 0 20 -7.5t6 -17.5q0 -11 -9 -19.5t-23 -8.5q-59 0 -93 15.5t-49 50
t-19 92.5q-21 -50 -52 -81.5t-67.5 -49t-72.5 -24t-67 -6.5zM461 790q-29 0 -52.5 10.5t-44 20.5t-38.5 10q-16 0 -31 -9t-31 -25l-26 23q20 23 41.5 38t48.5 15q24 0 45 -10t42.5 -20.5t46.5 -10.5q18 0 34.5 7t38.5 23l21 -29q-28 -26 -52 -34.5t-43 -8.5z" />
    <glyph glyph-name="uniFEF7" unicode="&#xfedf;&#xfe84;" horiz-adv-x="575" arabic-form="isolated" 
d="M387 532q0 27 -3 60.5t-7.5 64.5t-8.5 52l54 7q4 -20 8 -52.5t7 -67.5t3 -62q0 -119 -46 -222q56 -55 81 -99t25 -87q0 -26 -12.5 -55.5t-46 -50t-96.5 -20.5h-236v59q81 57 136 118t88 124q-54 49 -128 105t-163 122l32 44q91 -69 160.5 -123.5t119.5 -99.5q17 44 25 90
t8 93zM180 53h172q41 0 62.5 11.5t29.5 29t8 36.5q0 29 -21 62.5t-60 72.5q-65 -119 -191 -212zM298 761l-9 38q20 5 34.5 8t28.5 7q-26 12 -43 35t-17 50q0 42 29.5 63.5t67.5 21.5q25 0 47 -8l-6 -35q-20 6 -41 6q-29 0 -44 -13.5t-15 -33.5q0 -28 23 -46.5t49 -25.5
q39 11 66 22l12 -35q-24 -9 -56.5 -19.5t-65.5 -19.5t-60 -15z" />
    <glyph glyph-name="uniFEF8" unicode="&#xfee0;&#xfe84;" horiz-adv-x="560" arabic-form="final" 
d="M140 -8q-27 0 -54.5 4.5t-38.5 6.5l7 52q99 -20 179 4t122 104q-55 89 -125 176.5t-173 181.5l35 37q103 -98 170 -181t115 -158q15 54 15 120l-14 375h53l19 -507q2 -57 8.5 -92t30.5 -51t77 -16q14 0 20 -7.5t6 -17.5q0 -11 -9 -19.5t-23 -8.5q-59 0 -93 15.5t-49 50
t-19 92.5q-21 -50 -52 -81.5t-67.5 -49t-72.5 -24t-67 -6.5zM308 761l-9 38q20 5 34.5 8t28.5 7q-26 12 -43 35t-17 50q0 42 29.5 63.5t67.5 21.5q25 0 47 -8l-6 -35q-20 6 -41 6q-29 0 -44 -13.5t-15 -33.5q0 -28 23 -46.5t49 -25.5q39 11 66 22l12 -35q-24 -9 -56.5 -19.5
t-65.5 -19.5t-60 -15z" />
    <glyph glyph-name="uniFEF9" unicode="&#xfedf;&#xfe88;" horiz-adv-x="575" arabic-form="isolated" 
d="M387 532q0 27 -3 60.5t-7.5 64.5t-8.5 52l54 7q4 -20 8 -52.5t7 -67.5t3 -62q0 -119 -46 -222q56 -55 81 -99t25 -87q0 -26 -12.5 -55.5t-46 -50t-96.5 -20.5h-236v59q81 57 136 118t88 124q-54 49 -128 105t-163 122l32 44q91 -69 160.5 -123.5t119.5 -99.5q17 44 25 90
t8 93zM180 53h172q41 0 62.5 11.5t29.5 29t8 36.5q0 29 -21 62.5t-60 72.5q-65 -119 -191 -212zM92.2002 -267.293l-8.5498 36.1006q19 4.75 32.7754 7.60059q13.7754 2.84961 27.0752 6.64941q-24.7002 11.4004 -40.8506 33.251q-16.1504 21.8496 -16.1504 47.5
q0 39.9004 28.0254 60.3262q28.0254 20.4248 64.126 20.4248q23.751 0 44.6504 -7.59961l-5.7002 -33.251q-19 5.7002 -38.9502 5.7002q-27.5498 0 -41.8008 -12.8252q-14.25 -12.8252 -14.25 -31.8252q0 -26.6006 21.8506 -44.1758t46.5508 -24.2246
q37.0498 10.4502 62.7002 20.8994l11.4004 -33.25q-22.7998 -8.5498 -53.6758 -18.5254q-30.875 -9.97461 -62.2256 -18.5254q-31.3506 -8.5498 -57.001 -14.25z" />
    <glyph glyph-name="uniFEFA" unicode="&#xfee0;&#xfe88;" horiz-adv-x="560" arabic-form="final" 
d="M140 -8q-27 0 -54.5 4.5t-38.5 6.5l7 52q99 -20 179 4t122 104q-55 89 -125 176.5t-173 181.5l35 37q103 -98 170 -181t115 -158q15 54 15 120l-14 375h53l19 -507q2 -57 8.5 -92t30.5 -51t77 -16q14 0 20 -7.5t6 -17.5q0 -11 -9 -19.5t-23 -8.5q-59 0 -93 15.5t-49 50
t-19 92.5q-21 -50 -52 -81.5t-67.5 -49t-72.5 -24t-67 -6.5zM92.2002 -267.293l-8.5498 36.1006q19 4.75 32.7754 7.60059q13.7754 2.84961 27.0752 6.64941q-24.7002 11.4004 -40.8506 33.251q-16.1504 21.8496 -16.1504 47.5q0 39.9004 28.0254 60.3262
q28.0254 20.4248 64.126 20.4248q23.751 0 44.6504 -7.59961l-5.7002 -33.251q-19 5.7002 -38.9502 5.7002q-27.5498 0 -41.8008 -12.8252q-14.25 -12.8252 -14.25 -31.8252q0 -26.6006 21.8506 -44.1758t46.5508 -24.2246q37.0498 10.4502 62.7002 20.8994l11.4004 -33.25
q-22.7998 -8.5498 -53.6758 -18.5254q-30.875 -9.97461 -62.2256 -18.5254q-31.3506 -8.5498 -57.001 -14.25z" />
    <glyph glyph-name="uniFEFB" unicode="&#xfedf;&#xfe8e;" horiz-adv-x="575" arabic-form="isolated" 
d="M387 532q0 27 -3 60.5t-7.5 64.5t-8.5 52l54 7q4 -20 8 -52.5t7 -67.5t3 -62q0 -119 -46 -222q56 -55 81 -99t25 -87q0 -26 -12.5 -55.5t-46 -50t-96.5 -20.5h-236v59q81 57 136 118t88 124q-54 49 -128 105t-163 122l32 44q91 -69 160.5 -123.5t119.5 -99.5q17 44 25 90
t8 93zM180 53h172q41 0 62.5 11.5t29.5 29t8 36.5q0 29 -21 62.5t-60 72.5q-65 -119 -191 -212z" />
    <glyph glyph-name="uniFEFC" unicode="&#xfee0;&#xfe8e;" horiz-adv-x="560" arabic-form="final" 
d="M140 -8q-27 0 -54.5 4.5t-38.5 6.5l7 52q99 -20 179 4t122 104q-55 89 -125 176.5t-173 181.5l35 37q103 -98 170 -181t115 -158q15 54 15 120l-14 375h53l19 -507q2 -57 8.5 -92t30.5 -51t77 -16q14 0 20 -7.5t6 -17.5q0 -11 -9 -19.5t-23 -8.5q-59 0 -93 15.5t-49 50
t-19 92.5q-21 -50 -52 -81.5t-67.5 -49t-72.5 -24t-67 -6.5z" />
    <glyph glyph-name="lam_alefWasla-ar" unicode="&#xfedf;&#xfb51;" horiz-adv-x="575" 
d="M387 532q0 27 -3 60.5t-7.5 64.5t-8.5 52l54 7q4 -20 8 -52.5t7 -67.5t3 -62q0 -119 -46 -222q56 -55 81 -99t25 -87q0 -26 -12.5 -55.5t-46 -50t-96.5 -20.5h-236v59q81 57 136 118t88 124q-54 49 -128 105t-163 122l32 44q91 -69 160.5 -123.5t119.5 -99.5q17 44 25 90
t8 93zM180 53h172q41 0 62.5 11.5t29.5 29t8 36.5q0 29 -21 62.5t-60 72.5q-65 -119 -191 -212zM377 780q-24 0 -53.5 2t-56 5.5t-39.5 5.5l5 36q9 -1 22 -2.5t28 -3.5q15 31 36.5 61t50 49.5t64.5 19.5q34 0 56.5 -19.5t22.5 -56.5q0 -24 -12.5 -46.5t-42 -36.5t-81.5 -14z
M431 915q-35 0 -63 -28.5t-48 -66.5q15 -2 29.5 -2.5t27.5 -0.5q58 0 78.5 17.5t20.5 39.5t-13.5 31.5t-31.5 9.5z" />
    <glyph glyph-name="lam_alefWasla-ar.fina" unicode="&#xfee0;&#xfb51;" horiz-adv-x="560" 
d="M140 -8q-27 0 -54.5 4.5t-38.5 6.5l7 52q99 -20 179 4t122 104q-55 89 -125 176.5t-173 181.5l35 37q103 -98 170 -181t115 -158q15 54 15 120l-14 375h53l19 -507q2 -57 8.5 -92t30.5 -51t77 -16q14 0 20 -7.5t6 -17.5q0 -11 -9 -19.5t-23 -8.5q-59 0 -93 15.5t-49 50
t-19 92.5q-21 -50 -52 -81.5t-67.5 -49t-72.5 -24t-67 -6.5zM387 780q-24 0 -53.5 2t-56 5.5t-39.5 5.5l5 36q9 -1 22 -2.5t28 -3.5q15 31 36.5 61t50 49.5t64.5 19.5q34 0 56.5 -19.5t22.5 -56.5q0 -24 -12.5 -46.5t-42 -36.5t-81.5 -14zM441 915q-35 0 -63 -28.5
t-48 -66.5q15 -2 29.5 -2.5t27.5 -0.5q58 0 78.5 17.5t20.5 39.5t-13.5 31.5t-31.5 9.5z" />
    <glyph glyph-name="yehKashmiri-ar.init" unicode="&#x620;" horiz-adv-x="284" 
d="M0 -5l7 53q61 0 94.5 8.5t46 30.5t12.5 62t-15 96t-38 119l52 19q22 -57 36.5 -119t14.5 -104q0 -58 -19.5 -94t-65 -53.5t-125.5 -17.5zM99 -128q-34 0 -58.5 25t-24.5 59t24.5 58t58.5 24t59 -24t25 -58t-25 -59t-59 -25zM99 -92q20 0 34 14t14 34t-14 33.5t-34 13.5
t-34 -13.5t-14 -33.5t14 -34t34 -14z" />
    <glyph glyph-name="yehKashmiri-ar.medi" unicode="&#x620;" horiz-adv-x="362" 
d="M0 -5l7 53q42 0 70.5 7t48 29.5t34 68t28.5 121.5l52 -10q-9 -40 -15.5 -72t-6.5 -60q0 -18 3.5 -33.5t17.5 -26.5t45 -17.5t85 -6.5q13 0 19 -7.5t6 -17.5q0 -11 -9 -19.5t-23 -8.5q-95 0 -132 21t-44 62q-20 -36 -45 -54t-59.5 -23.5t-81.5 -5.5zM116 -122
q-34 0 -58.5 25t-24.5 59t24.5 58t58.5 24t59 -24t25 -58t-25 -59t-59 -25zM116 -86q20 0 34 14t14 34t-14 33.5t-34 13.5t-34 -13.5t-14 -33.5t14 -34t34 -14z" />
    <glyph glyph-name="yehKashmiri-ar.fina" unicode="&#x620;" horiz-adv-x="812" 
d="M40 164q0 37 10 80.5t37 104.5l47 -19q-40 -92 -40 -161q0 -84 68 -128t188 -44q119 0 181.5 25.5t62.5 63.5q0 15 -14.5 30.5t-48 38t-91.5 59.5l28 48q88 -62 150.5 -110.5t110 -76t89.5 -27.5q15 0 20.5 -7.5t5.5 -17.5q0 -11 -9 -19.5t-27 -8.5q-49 0 -90 21.5
t-71 46.5q-10 -48 -86 -83.5t-221 -35.5q-84 0 -152 23.5t-108 72t-40 124.5zM333 -199q-34 0 -58.5 25t-24.5 59t24.5 58t58.5 24t59 -24t25 -58t-25 -59t-59 -25zM333 -163q20 0 34 14t14 34t-14 33.5t-34 13.5t-34 -13.5t-14 -33.5t14 -34t34 -14z" />
    <glyph glyph-name="kehehTwodotshorizontalabove-ar.init" unicode="&#x63b;" horiz-adv-x="394" 
d="M0 -5l7 53h82q73 0 113.5 11.5t57 34t16.5 54.5q0 34 -25 78t-77 96q-68 70 -109 100t-41 42q0 36 18 53q46 41 131 87.5t203 103.5l22 -48q-123 -57 -198 -99t-125 -80q67 -58 124 -114t91 -111t34 -111q0 -43 -22 -77t-75 -53.5t-145 -19.5h-82zM239 733
q-16 0 -26.5 11t-10.5 25q0 15 10.5 25.5t26.5 10.5q14 0 24.5 -10.5t10.5 -25.5q0 -14 -10.5 -25t-24.5 -11zM126 681q-15 0 -25.5 10.5t-10.5 25.5t10.5 25.5t25.5 10.5t25.5 -10.5t10.5 -25.5t-10.5 -25.5t-25.5 -10.5z" />
    <glyph glyph-name="kehehTwodotshorizontalabove-ar.medi" unicode="&#x63b;" horiz-adv-x="480" 
d="M0 -5l7 53h77q75 0 116.5 11.5t58 33t16.5 51.5q0 26 -18 58t-46.5 65.5t-61 66t-61 59.5t-46.5 46t-18 26q0 33 18 53q46 40 134.5 89t199.5 101l22 -48q-98 -46 -183.5 -92t-142.5 -88q52 -49 104 -100.5t94 -105.5t66 -110q24 -57 64 -86.5t86 -29.5q14 0 20 -7.5
t6 -17.5q0 -11 -9 -19.5t-23 -8.5q-43 0 -88.5 22.5t-76.5 79.5q-23 -59 -83.5 -80.5t-153.5 -21.5h-78zM213 733q-16 0 -26.5 11t-10.5 25q0 15 10.5 25.5t26.5 10.5q14 0 24.5 -10.5t10.5 -25.5q0 -14 -10.5 -25t-24.5 -11zM100 681q-15 0 -25.5 10.5t-10.5 25.5
t10.5 25.5t25.5 10.5t25.5 -10.5t10.5 -25.5t-10.5 -25.5t-25.5 -10.5z" />
    <glyph glyph-name="kehehTwodotshorizontalabove-ar.fina" unicode="&#x63b;" horiz-adv-x="970" 
d="M400 -21q-176 0 -268 46t-92 152q0 35 8 74t18 74l49 -13q-7 -26 -14.5 -58t-7.5 -63q0 -88 78.5 -123.5t254.5 -35.5q162 0 250.5 30t88.5 82q0 30 -18 63.5t-46.5 67t-61 65t-61 57t-46.5 43.5t-18 25q0 33 18 53q28 25 79.5 56.5t117 65.5t137.5 68l22 -48
q-61 -28 -121.5 -59t-114 -62t-90.5 -59q52 -47 102 -93.5t92 -100t70 -122.5q24 -57 64 -86.5t86 -29.5q14 0 20 -7.5t6 -17.5q0 -11 -9 -19.5t-23 -8.5q-44 0 -89 23.5t-76 81.5q-26 -60 -121.5 -90.5t-283.5 -30.5zM730 734q-16 0 -26.5 11t-10.5 25q0 15 10.5 25.5
t26.5 10.5q14 0 24.5 -10.5t10.5 -25.5q0 -14 -10.5 -25t-24.5 -11zM617 682q-15 0 -25.5 10.5t-10.5 25.5t10.5 25.5t25.5 10.5t25.5 -10.5t10.5 -25.5t-10.5 -25.5t-25.5 -10.5z" />
    <glyph glyph-name="kehehThreedotsbelow-ar.init" unicode="&#x63c;" horiz-adv-x="394" 
d="M0 -5l7 53h82q73 0 113.5 11.5t57 34t16.5 54.5q0 34 -25 78t-77 96q-68 70 -109 100t-41 42q0 36 18 53q46 41 131 87.5t203 103.5l22 -48q-123 -57 -198 -99t-125 -80q67 -58 124 -114t91 -111t34 -111q0 -43 -22 -77t-75 -53.5t-145 -19.5h-82zM103 -135
q-15 0 -25.5 10t-10.5 25t10.5 25.5t25.5 10.5q14 0 25 -10.5t11 -25.5t-11 -25t-25 -10zM217 -135q-15 0 -25.5 10t-10.5 25t10.5 25.5t25.5 10.5q14 0 24.5 -10.5t10.5 -25.5t-10.5 -25t-24.5 -10zM160 -227q-15 0 -25.5 10.5t-10.5 24.5q0 15 10.5 26t25.5 11
q14 0 24.5 -11t10.5 -26q0 -14 -10.5 -24.5t-24.5 -10.5z" />
    <glyph glyph-name="kehehThreedotsbelow-ar.medi" unicode="&#x63c;" horiz-adv-x="480" 
d="M0 -5l7 53h77q75 0 116.5 11.5t58 33t16.5 51.5q0 26 -18 58t-46.5 65.5t-61 66t-61 59.5t-46.5 46t-18 26q0 33 18 53q46 40 134.5 89t199.5 101l22 -48q-98 -46 -183.5 -92t-142.5 -88q52 -49 104 -100.5t94 -105.5t66 -110q24 -57 64 -86.5t86 -29.5q14 0 20 -7.5
t6 -17.5q0 -11 -9 -19.5t-23 -8.5q-43 0 -88.5 22.5t-76.5 79.5q-23 -59 -83.5 -80.5t-153.5 -21.5h-78zM103 -135q-15 0 -25.5 10t-10.5 25t10.5 25.5t25.5 10.5q14 0 25 -10.5t11 -25.5t-11 -25t-25 -10zM217 -135q-15 0 -25.5 10t-10.5 25t10.5 25.5t25.5 10.5
q14 0 24.5 -10.5t10.5 -25.5t-10.5 -25t-24.5 -10zM160 -227q-15 0 -25.5 10.5t-10.5 24.5q0 15 10.5 26t25.5 11q14 0 24.5 -11t10.5 -26q0 -14 -10.5 -24.5t-24.5 -10.5z" />
    <glyph glyph-name="kehehThreedotsbelow-ar.fina" unicode="&#x63c;" horiz-adv-x="970" 
d="M400 -21q-176 0 -268 46t-92 152q0 35 8 74t18 74l49 -13q-7 -26 -14.5 -58t-7.5 -63q0 -88 78.5 -123.5t254.5 -35.5q162 0 250.5 30t88.5 82q0 30 -18 63.5t-46.5 67t-61 65t-61 57t-46.5 43.5t-18 25q0 33 18 53q28 25 79.5 56.5t117 65.5t137.5 68l22 -48
q-61 -28 -121.5 -59t-114 -62t-90.5 -59q52 -47 102 -93.5t92 -100t70 -122.5q24 -57 64 -86.5t86 -29.5q14 0 20 -7.5t6 -17.5q0 -11 -9 -19.5t-23 -8.5q-44 0 -89 23.5t-76 81.5q-26 -60 -121.5 -90.5t-283.5 -30.5zM353 -156q-15 0 -25.5 10t-10.5 25t10.5 25.5
t25.5 10.5q14 0 25 -10.5t11 -25.5t-11 -25t-25 -10zM467 -156q-15 0 -25.5 10t-10.5 25t10.5 25.5t25.5 10.5q14 0 24.5 -10.5t10.5 -25.5t-10.5 -25t-24.5 -10zM410 -248q-15 0 -25.5 10.5t-10.5 24.5q0 15 10.5 26t25.5 11q14 0 24.5 -11t10.5 -26q0 -14 -10.5 -24.5
t-24.5 -10.5z" />
    <glyph glyph-name="yehVinverted-farsi.init" unicode="&#x63d;" horiz-adv-x="259" 
d="M0 -5l7 53q77 0 105 22t28 79q0 40 -15 96t-38 119l52 19q22 -57 36.5 -119t14.5 -104q0 -86 -43 -125.5t-147 -39.5zM83 714l41 4q9 -20 25 -54t33 -68t29 -55l-32 -17q-8 12 -22 38.5t-29 57t-25 53.5q-11 -28 -25 -60t-26 -58.5t-17 -34.5l-32 14q5 10 16 33t23.5 51
t23.5 54t17 42zM168 -182q-16 0 -27 11t-11 26q0 16 11 27.5t27 11.5q15 0 26.5 -11.5t11.5 -27.5q0 -15 -11.5 -26t-26.5 -11zM47 -182q-16 0 -27 11t-11 26q0 16 11 27.5t27 11.5t26.5 -11.5t10.5 -27.5q0 -15 -10.5 -26t-26.5 -11z" />
    <glyph glyph-name="yehVinverted-farsi.medi" unicode="&#x63d;" horiz-adv-x="348" 
d="M0 -5l7 53q41 0 67.5 6.5t44 28.5t31 67.5t28.5 123.5l52 -10q-9 -40 -15.5 -72t-6.5 -60q0 -24 9.5 -43t40.5 -30t96 -11q14 0 20 -7.5t6 -17.5q0 -11 -9 -19.5t-23 -8.5q-83 0 -123 21t-48 62q-19 -36 -42.5 -53.5t-56 -23.5t-78.5 -6zM168 600l41 4q9 -20 25 -54
t33 -68t29 -55l-32 -17q-8 12 -22 38.5t-29 57t-25 53.5q-11 -28 -25 -60t-26 -58.5t-17 -34.5l-32 14q5 10 16 33t23.5 51t23.5 54t17 42zM237 -182q-16 0 -27 11t-11 26q0 16 11 27.5t27 11.5q15 0 26.5 -11.5t11.5 -27.5q0 -15 -11.5 -26t-26.5 -11zM116 -182
q-16 0 -27 11t-11 26q0 16 11 27.5t27 11.5t26.5 -11.5t10.5 -27.5q0 -15 -10.5 -26t-26.5 -11z" />
    <glyph glyph-name="yehVinverted-farsi.fina" unicode="&#x63d;" horiz-adv-x="746" 
d="M40 -12q0 37 10 81t37 105l47 -20q-40 -92 -40 -161q0 -83 68 -127t188 -44q88 0 153 23t101 58t36 72q0 23 -22.5 40.5t-58 31.5t-75.5 27l14 53q72 -30 117.5 -47.5t76.5 -24.5t60 -7q15 0 20.5 -7.5t5.5 -17.5q0 -11 -9 -19.5t-27 -8.5q-11 0 -30.5 2.5t-33.5 6.5
q6 -10 8.5 -20t2.5 -18q0 -33 -22.5 -67.5t-66.5 -64t-109 -47.5t-151 -18q-84 0 -152 23.5t-108 71.5t-40 124zM204 460l41 4q9 -20 25 -54t33 -68t29 -55l-32 -17q-8 12 -22 38.5t-29 57t-25 53.5q-11 -28 -25 -60t-26 -58.5t-17 -34.5l-32 14q5 10 16 33t23.5 51t23.5 54
t17 42z" />
    <glyph glyph-name="yehTwodotsabove-farsi.init" unicode="&#x63e;" horiz-adv-x="284" 
d="M0 -5l7 53q61 0 94.5 8.5t46 30.5t12.5 62t-15 96t-38 119l52 19q22 -57 36.5 -119t14.5 -104q0 -58 -19.5 -94t-65 -53.5t-125.5 -17.5zM198 513q-16 0 -27.5 11t-11.5 27q0 15 11.5 26.5t27.5 11.5t26.5 -11.5t10.5 -26.5q0 -16 -10.5 -27t-26.5 -11zM77 513
q-16 0 -27 11t-11 27q0 15 11 26.5t27 11.5q15 0 26.5 -11.5t11.5 -26.5q0 -16 -11.5 -27t-26.5 -11zM177 -182q-16 0 -27 11t-11 26q0 16 11 27.5t27 11.5q15 0 26.5 -11.5t11.5 -27.5q0 -15 -11.5 -26t-26.5 -11zM56 -182q-16 0 -27 11t-11 26q0 16 11 27.5t27 11.5
t26.5 -11.5t10.5 -27.5q0 -15 -10.5 -26t-26.5 -11z" />
    <glyph glyph-name="yehTwodotsabove-farsi.medi" unicode="&#x63e;" horiz-adv-x="362" 
d="M0 -5l7 53q42 0 70.5 7t48 29.5t34 68t28.5 121.5l52 -10q-9 -40 -15.5 -72t-6.5 -60q0 -18 3.5 -33.5t17.5 -26.5t45 -17.5t85 -6.5q13 0 19 -7.5t6 -17.5q0 -11 -9 -19.5t-23 -8.5q-95 0 -132 21t-44 62q-20 -36 -45 -54t-59.5 -23.5t-81.5 -5.5zM264 398
q-16 0 -27.5 11t-11.5 27q0 15 11.5 26.5t27.5 11.5t26.5 -11.5t10.5 -26.5q0 -16 -10.5 -27t-26.5 -11zM143 398q-16 0 -27 11t-11 27q0 15 11 26.5t27 11.5q15 0 26.5 -11.5t11.5 -26.5q0 -16 -11.5 -27t-26.5 -11zM248 -188q-16 0 -27 11t-11 26q0 16 11 27.5t27 11.5
q15 0 26.5 -11.5t11.5 -27.5q0 -15 -11.5 -26t-26.5 -11zM127 -188q-16 0 -27 11t-11 26q0 16 11 27.5t27 11.5t26.5 -11.5t10.5 -27.5q0 -15 -10.5 -26t-26.5 -11z" />
    <glyph glyph-name="yehTwodotsabove-farsi.fina" unicode="&#x63e;" horiz-adv-x="746" 
d="M40 -12q0 37 10 81t37 105l47 -20q-40 -92 -40 -161q0 -83 68 -127t188 -44q88 0 153 23t101 58t36 72q0 23 -22.5 40.5t-58 31.5t-75.5 27l14 53q72 -30 117.5 -47.5t76.5 -24.5t60 -7q15 0 20.5 -7.5t5.5 -17.5q0 -11 -9 -19.5t-27 -8.5q-11 0 -30.5 2.5t-33.5 6.5
q6 -10 8.5 -20t2.5 -18q0 -33 -22.5 -67.5t-66.5 -64t-109 -47.5t-151 -18q-84 0 -152 23.5t-108 71.5t-40 124zM294 259q-16 0 -27.5 11t-11.5 27q0 15 11.5 26.5t27.5 11.5t26.5 -11.5t10.5 -26.5q0 -16 -10.5 -27t-26.5 -11zM173 259q-16 0 -27 11t-11 27q0 15 11 26.5
t27 11.5q15 0 26.5 -11.5t11.5 -26.5q0 -16 -11.5 -27t-26.5 -11z" />
    <glyph glyph-name="yehThreedotsabove-farsi.init" unicode="&#x63f;" horiz-adv-x="284" 
d="M0 -5l7 53q61 0 94.5 8.5t46 30.5t12.5 62t-15 96t-38 119l52 19q22 -57 36.5 -119t14.5 -104q0 -58 -19.5 -94t-65 -53.5t-125.5 -17.5zM137 609q-15 0 -26.5 11.5t-11.5 26.5q0 16 11.5 27t26.5 11q16 0 27 -11t11 -27q0 -15 -11 -26.5t-27 -11.5zM77 513q-15 0 -26 11
t-11 27q0 15 11 26.5t26 11.5q16 0 27 -11.5t11 -26.5q0 -16 -11 -27t-27 -11zM198 513q-16 0 -27 11t-11 27q0 15 11 26.5t27 11.5t27 -11.5t11 -26.5q0 -16 -11 -27t-27 -11zM177 -182q-16 0 -27 11t-11 26q0 16 11 27.5t27 11.5q15 0 26.5 -11.5t11.5 -27.5
q0 -15 -11.5 -26t-26.5 -11zM56 -182q-16 0 -27 11t-11 26q0 16 11 27.5t27 11.5t26.5 -11.5t10.5 -27.5q0 -15 -10.5 -26t-26.5 -11z" />
    <glyph glyph-name="yehThreedotsabove-farsi.medi" unicode="&#x63f;" horiz-adv-x="362" 
d="M0 -5l7 53q42 0 70.5 7t48 29.5t34 68t28.5 121.5l52 -10q-9 -40 -15.5 -72t-6.5 -60q0 -18 3.5 -33.5t17.5 -26.5t45 -17.5t85 -6.5q13 0 19 -7.5t6 -17.5q0 -11 -9 -19.5t-23 -8.5q-95 0 -132 21t-44 62q-20 -36 -45 -54t-59.5 -23.5t-81.5 -5.5zM203 494
q-15 0 -26.5 11.5t-11.5 26.5q0 16 11.5 27t26.5 11q16 0 27 -11t11 -27q0 -15 -11 -26.5t-27 -11.5zM143 398q-15 0 -26 11t-11 27q0 15 11 26.5t26 11.5q16 0 27 -11.5t11 -26.5q0 -16 -11 -27t-27 -11zM264 398q-16 0 -27 11t-11 27q0 15 11 26.5t27 11.5t27 -11.5
t11 -26.5q0 -16 -11 -27t-27 -11zM248 -188q-16 0 -27 11t-11 26q0 16 11 27.5t27 11.5q15 0 26.5 -11.5t11.5 -27.5q0 -15 -11.5 -26t-26.5 -11zM127 -188q-16 0 -27 11t-11 26q0 16 11 27.5t27 11.5t26.5 -11.5t10.5 -27.5q0 -15 -10.5 -26t-26.5 -11z" />
    <glyph glyph-name="yehThreedotsabove-farsi.fina" unicode="&#x63f;" horiz-adv-x="746" 
d="M40 -12q0 37 10 81t37 105l47 -20q-40 -92 -40 -161q0 -83 68 -127t188 -44q88 0 153 23t101 58t36 72q0 23 -22.5 40.5t-58 31.5t-75.5 27l14 53q72 -30 117.5 -47.5t76.5 -24.5t60 -7q15 0 20.5 -7.5t5.5 -17.5q0 -11 -9 -19.5t-27 -8.5q-11 0 -30.5 2.5t-33.5 6.5
q6 -10 8.5 -20t2.5 -18q0 -33 -22.5 -67.5t-66.5 -64t-109 -47.5t-151 -18q-84 0 -152 23.5t-108 71.5t-40 124zM233 355q-15 0 -26.5 11.5t-11.5 26.5q0 16 11.5 27t26.5 11q16 0 27 -11t11 -27q0 -15 -11 -26.5t-27 -11.5zM173 259q-15 0 -26 11t-11 27q0 15 11 26.5
t26 11.5q16 0 27 -11.5t11 -26.5q0 -16 -11 -27t-27 -11zM294 259q-16 0 -27 11t-11 27q0 15 11 26.5t27 11.5t27 -11.5t11 -26.5q0 -16 -11 -27t-27 -11z" />
    <glyph glyph-name="uniFE71" unicode="&#x64b;" horiz-adv-x="295" 
d="M0 -5l7 53h295q14 0 19.5 -7.5t5.5 -17.5q0 -11 -9 -19.5t-23 -8.5h-295zM26 707v39l224 66v-40zM26 602v39l224 66v-40z" />
    <glyph glyph-name="uniFE77" unicode="&#x64e;" horiz-adv-x="295" 
d="M0 -5l7 53h295q14 0 19.5 -7.5t5.5 -17.5q0 -11 -9 -19.5t-23 -8.5h-295zM19 602v39l224 66v-40z" />
    <glyph glyph-name="uniFE79" unicode="&#x64f;" horiz-adv-x="295" 
d="M0 -5l7 53h295q14 0 19.5 -7.5t5.5 -17.5q0 -11 -9 -19.5t-23 -8.5h-295zM18 596l-7 34q46 4 81 14t58 24q-31 13 -49.5 34t-18.5 50q0 33 23 56.5t57 23.5q33 0 54.5 -23.5t21.5 -60.5q0 -64 -60.5 -104t-159.5 -48zM118 752q0 -22 18.5 -38t42.5 -23q23 25 23 54
q0 19 -10 35t-31 16q-19 0 -31 -13t-12 -31z" />
    <glyph glyph-name="uniFE7B" unicode="&#x650;" horiz-adv-x="295" 
d="M0 -5l7 53h295q14 0 19.5 -7.5t5.5 -17.5q0 -11 -9 -19.5t-23 -8.5h-295zM48 -171v39l224 66v-40z" />
    <glyph glyph-name="uniFE7D" unicode="&#x651;" horiz-adv-x="295" 
d="M0 -5l7 53h295q14 0 19.5 -7.5t5.5 -17.5q0 -11 -9 -19.5t-23 -8.5h-295zM65 591q-36 0 -50 24t-14 57q0 21 6 54l36 10q-4 -18 -5.5 -33t-1.5 -25q0 -21 7.5 -34.5t26.5 -13.5q17 0 29 16.5t13 61.5v46l35 13v-71q0 -14 8 -24.5t28 -10.5t28 13.5t8 35.5q0 20 -4 38.5
t-11 35.5l33 10q8 -16 14 -40t6 -46q0 -34 -17 -59t-55 -25q-32 0 -49 20q-8 -23 -26 -38t-45 -15z" />
    <glyph glyph-name="uniFE7F" unicode="&#x652;" horiz-adv-x="295" 
d="M0 -5l7 53h295q14 0 19.5 -7.5t5.5 -17.5q0 -11 -9 -19.5t-23 -8.5h-295zM136 618q-43 0 -61.5 24.5t-18.5 56.5q0 42 24 73t61 31q33 0 55 -28.5t22 -69.5q0 -38 -21.5 -62.5t-60.5 -24.5zM136 656q17 0 32 11t15 38q0 26 -14.5 42.5t-31.5 16.5q-21 0 -34 -19t-13 -43
q0 -26 14.5 -36t31.5 -10z" />
    <glyph glyph-name="dotlessbeh-ar.init" unicode="&#x66e;" horiz-adv-x="259" 
d="M0 -5l7 53q77 0 105 22t28 79q0 40 -15 96t-38 119l52 19q22 -57 36.5 -119t14.5 -104q0 -86 -43 -125.5t-147 -39.5z" />
    <glyph glyph-name="dotlessbeh-ar.medi" unicode="&#x66e;" horiz-adv-x="348" 
d="M0 -5l7 53q41 0 67.5 6.5t44 28.5t31 67.5t28.5 123.5l52 -10q-9 -40 -15.5 -72t-6.5 -60q0 -24 9.5 -43t40.5 -30t96 -11q14 0 20 -7.5t6 -17.5q0 -11 -9 -19.5t-23 -8.5q-83 0 -123 21t-48 62q-19 -36 -42.5 -53.5t-56 -23.5t-78.5 -6z" />
    <glyph glyph-name="dotlessbeh-ar.fina" unicode="&#x66e;" horiz-adv-x="1062" 
d="M400 -21q-176 0 -268 46t-92 152q0 35 8 74t18 74l49 -13q-7 -26 -14.5 -58t-7.5 -63q0 -88 78.5 -123.5t254.5 -35.5q351 0 483 188l43 -23q-10 -26 -14 -43.5t-4 -31.5q0 -21 11 -38t40.5 -26.5t83.5 -9.5q13 0 19 -7.5t6 -17.5q0 -11 -9 -19.5t-23 -8.5
q-88 0 -134.5 29.5t-42.5 89.5q-69 -62 -185 -98.5t-300 -36.5z" />
    <glyph glyph-name="dotlessqaf-ar.init" unicode="&#x66f;" horiz-adv-x="439" 
d="M0 -5l7 53q48 0 96 2t88 8t65 19q27 12 46.5 33.5t28.5 61.5q-23 -9 -49 -12.5t-52 -3.5q-69 0 -111.5 30.5t-42.5 93.5q0 36 12 73t33.5 68.5t50.5 50.5t64 19q50 0 84 -35t51.5 -91t17.5 -120q0 -67 -20.5 -118t-73.5 -85q-41 -26 -115 -36.5t-180 -10.5zM127 293
q0 -49 29 -67t80 -18q56 0 101 16q1 13 1 27q0 46 -12.5 89t-37 70.5t-58.5 27.5q-26 0 -50 -22.5t-38.5 -56t-14.5 -66.5z" />
    <glyph glyph-name="dotlessqaf-ar.medi" unicode="&#x66f;" horiz-adv-x="492" 
d="M0 -5l7 53q43 0 88.5 4.5t84.5 14.5q-21 13 -43 33.5t-37 50t-15 70.5q0 51 23.5 93t60.5 66.5t79 24.5q45 0 80 -26t55 -67t20 -86q0 -55 -27 -93.5t-70 -65.5q39 -7 88.5 -13t103.5 -6q14 0 20 -7.5t6 -17.5q0 -11 -9 -19.5t-23 -8.5q-41 0 -87 5.5t-89 14.5t-76 20
q-4 -1 -8 -3q-50 -20 -111 -28.5t-121 -8.5zM137 220q0 -51 30.5 -83t69.5 -51q49 22 81.5 54.5t32.5 83.5q0 26 -13 56t-36.5 51t-55.5 21q-27 0 -52 -18.5t-41 -48.5t-16 -65z" />
    <glyph glyph-name="dotlessqaf-ar.fina" unicode="&#x66f;" horiz-adv-x="808" 
d="M342 -271q-90 0 -158 24t-106 76t-38 135q0 19 8.5 71.5t48.5 124.5l47 -22q-21 -40 -35 -81t-14 -84q0 -72 33 -113.5t92.5 -59t139.5 -17.5q44 0 91 9t90 29.5t74.5 55t43.5 85.5q4 14 7 33h-87q-43 0 -81.5 10t-62.5 36t-25 73q0 35 12 71.5t34.5 67.5t52 50t63.5 19
q67 0 110.5 -69.5t43.5 -192.5v-12h88q14 0 20 -7.5t6 -17.5q0 -11 -9 -19.5t-23 -8.5h-89q-7 -38 -19 -70q-21 -59 -60.5 -97t-89.5 -59.5t-104 -30.5t-104 -9zM600 48h71q1 11 1 20q0 60 -14 105t-38 70.5t-54 25.5q-27 0 -51 -22.5t-38.5 -55.5t-14.5 -67q0 -33 18 -49.5
t49 -21.5t71 -5z" />
    <glyph glyph-name="alefWavyhamzaabove-ar.fina" unicode="&#x672;" horiz-adv-x="276" 
d="M276 -5q-71 0 -108 15t-51.5 51.5t-16.5 98.5l-18 484h52l18 -462q2 -56 11 -85t35.5 -39t83.5 -10q14 0 20 -7.5t6 -17.5q0 -11 -9 -19.5t-23 -8.5zM-55 724l-29 18q12 24 30 35t36 11q24 0 41 -11t37 -11q14 0 31 3q-30 11 -50.5 35.5t-20.5 53.5q0 40 30 62t68 22
q12 0 25 -2t23 -6l-7 -34l-20 4t-20 2q-31 0 -46 -13.5t-15 -33.5q0 -21 13.5 -37.5t33 -26t37.5 -11.5q16 6 29.5 11.5t26.5 11.5l12 -33q-12 -7 -39.5 -18t-59 -19.5t-53.5 -8.5q-26 0 -43.5 11t-32.5 11q-14 0 -22 -7.5t-15 -18.5z" />
    <glyph glyph-name="alefWavyhamzabelow-ar.fina" unicode="&#x673;" horiz-adv-x="278" 
d="M278 -5q-71 0 -108.5 15t-51.5 51.5t-16 98.5l-20 554h52l20 -532q2 -56 11 -85t35.5 -39t83.5 -10q14 0 20 -7.5t6 -17.5q0 -11 -9 -19.5t-23 -8.5zM-17 -271l-27 16q11 22 28.5 33t34.5 11q22 0 39 -10.5t35 -10.5q15 0 30 3q-29 11 -48.5 34t-19.5 52q0 39 28.5 59.5
t65.5 20.5q25 0 44 -8l-6 -32q-9 2 -18.5 4t-19.5 2q-29 0 -43.5 -13t-14.5 -33t13 -35.5t31.5 -24.5t35.5 -11q16 4 28.5 9.5t25.5 11.5l10 -30q-11 -6 -37 -16.5t-55.5 -19t-51.5 -8.5q-24 0 -41.5 11t-31.5 11q-12 0 -20 -8t-15 -18z" />
    <glyph glyph-name="highhamzaAlef-ar.fina" unicode="&#x675;" horiz-adv-x="422" 
d="M422 -5h-146q-70 0 -107 15.5t-51 51.5t-16 98l-20 554h52l20 -532q2 -56 10.5 -85t35 -39t82.5 -10h147q13 0 19 -7.5t6 -17.5q0 -11 -9 -19.5t-23 -8.5zM206 585l-8 38q38 9 64 16q-27 12 -44.5 34.5t-17.5 49.5q0 42 30 63.5t68 21.5q12 0 25 -2t23 -6l-7 -34
q-10 2 -20.5 4t-20.5 2q-30 0 -45 -13.5t-15 -34.5q0 -28 23 -46.5t50 -25.5q19 5 35.5 10.5t31.5 11.5l11 -35q-25 -9 -57 -19t-65 -19t-61 -16z" />
    <glyph glyph-name="highhamzaWaw-ar.fina" unicode="&#x676;" horiz-adv-x="474" 
d="M57 -230l-11 52q66 10 122 29t97 53.5t59 90.5h-75q-45 0 -84.5 10.5t-64 37.5t-24.5 75q0 52 22 99t59 77t81 30q66 0 108.5 -61.5t42.5 -180.5q0 -17 -2 -34h93q14 0 20 -7.5t6 -17.5q0 -11 -9 -19.5t-23 -8.5h-96q-25 -91 -105 -149.5t-216 -75.5zM268 48h68
q2 18 2 38q0 88 -31 137t-75 49q-26 0 -49.5 -20.5t-39 -53.5t-15.5 -70q0 -34 18.5 -51.5t50 -23t71.5 -5.5zM295 395l-9 38q20 5 34.5 8t28.5 7q-26 12 -43 35t-17 50q0 42 29.5 63.5t67.5 21.5q25 0 47 -8l-6 -35q-20 6 -41 6q-29 0 -44 -13.5t-15 -33.5q0 -28 23 -46.5
t49 -25.5q39 11 66 22l12 -35q-24 -9 -56.5 -19.5t-65.5 -19.5t-60 -15z" />
    <glyph glyph-name="uHamzaabove-ar.fina" unicode="&#x677;" horiz-adv-x="544" 
d="M127 -230l-11 52q66 10 122 29t97 53.5t59 90.5h-75q-45 0 -84.5 10.5t-64 37.5t-24.5 75q0 52 22 99t59 77t81 30q66 0 108.5 -61.5t42.5 -180.5q0 -17 -2 -34h93q14 0 20 -7.5t6 -17.5q0 -11 -9 -19.5t-23 -8.5h-96q-25 -91 -105 -149.5t-216 -75.5zM338 48h68
q2 18 2 38q0 88 -31 137t-75 49q-26 0 -49.5 -20.5t-39 -53.5t-15.5 -70q0 -34 18.5 -51.5t50 -23t71.5 -5.5zM370 395l-9 38q20 5 34.5 8t28.5 7q-26 12 -43 35t-17 50q0 42 29.5 63.5t67.5 21.5q25 0 47 -8l-6 -35q-20 6 -41 6q-29 0 -44 -13.5t-15 -33.5q0 -28 23 -46.5
t49 -25.5q39 11 66 22l12 -35q-24 -9 -56.5 -19.5t-65.5 -19.5t-60 -15zM53 402l-7 34q46 4 81 14t58 24q-31 13 -49.5 34t-18.5 50q0 33 23 56.5t57 23.5q33 0 54.5 -23.5t21.5 -60.5q0 -64 -60.5 -104t-159.5 -48zM153 558q0 -22 18.5 -38t42.5 -23q23 25 23 54
q0 19 -10 35t-31 16q-19 0 -31 -13t-12 -31z" />
    <glyph glyph-name="highhamzaYeh-ar.init" unicode="&#x678;" horiz-adv-x="350" 
d="M0 -5l7 53q77 0 105 22t28 79q0 40 -15 96t-38 119l52 19q22 -57 36.5 -119t14.5 -104q0 -86 -43 -125.5t-147 -39.5zM163 585l-8 38q38 9 64 16q-27 12 -44.5 34.5t-17.5 49.5q0 42 30 63.5t68 21.5q12 0 25 -2t23 -6l-7 -34q-10 2 -20.5 4t-20.5 2q-30 0 -45 -13.5
t-15 -34.5q0 -28 23 -46.5t50 -25.5q19 5 35.5 10.5t31.5 11.5l11 -35q-25 -9 -57 -19t-65 -19t-61 -16z" />
    <glyph glyph-name="highhamzaYeh-ar.medi" unicode="&#x678;" horiz-adv-x="343" 
d="M0 -5l7 53q41 0 67.5 6.5t44 28.5t31 67.5t28.5 123.5l52 -10q-9 -40 -15.5 -72t-6.5 -60q0 -24 9.5 -43t40.5 -30t96 -11q14 0 20 -7.5t6 -17.5q0 -11 -9 -19.5t-23 -8.5q-83 0 -123 21t-48 62q-19 -36 -42.5 -53.5t-56 -23.5t-78.5 -6zM159 416l-8 38q38 9 64 16
q-27 12 -44.5 34.5t-17.5 49.5q0 42 30 63.5t68 21.5q12 0 25 -2t23 -6l-7 -34q-10 2 -20.5 4t-20.5 2q-30 0 -45 -13.5t-15 -34.5q0 -28 23 -46.5t50 -25.5q19 5 35.5 10.5t31.5 11.5l11 -35q-25 -9 -57 -19t-65 -19t-61 -16z" />
    <glyph glyph-name="highhamzaYeh-ar.fina" unicode="&#x678;" horiz-adv-x="746" 
d="M40 -12q0 37 10 81t37 105l47 -20q-40 -92 -40 -161q0 -83 68 -127t188 -44q88 0 153 23t101 58t36 72q0 23 -22.5 40.5t-58 31.5t-75.5 27l14 53q72 -30 117.5 -47.5t76.5 -24.5t60 -7q15 0 20.5 -7.5t5.5 -17.5q0 -11 -9 -19.5t-27 -8.5q-11 0 -30.5 2.5t-33.5 6.5
q6 -10 8.5 -20t2.5 -18q0 -33 -22.5 -67.5t-66.5 -64t-109 -47.5t-151 -18q-84 0 -152 23.5t-108 71.5t-40 124zM499 212l-8 38q38 9 64 16q-27 12 -44.5 34.5t-17.5 49.5q0 42 30 63.5t68 21.5q12 0 25 -2t23 -6l-7 -34q-10 2 -20.5 4t-20.5 2q-30 0 -45 -13.5t-15 -34.5
q0 -28 23 -46.5t50 -25.5q19 5 35.5 10.5t31.5 11.5l11 -35q-25 -9 -57 -19t-65 -19t-61 -16z" />
    <glyph glyph-name="tehRing-ar.init" unicode="&#x67c;" horiz-adv-x="284" 
d="M0 -5l7 53q61 0 94.5 8.5t46 30.5t12.5 62t-15 96t-38 119l52 19q22 -57 36.5 -119t14.5 -104q0 -58 -19.5 -94t-65 -53.5t-125.5 -17.5zM198 513q-16 0 -27.5 11t-11.5 27q0 15 11.5 26.5t27.5 11.5t26.5 -11.5t10.5 -26.5q0 -16 -10.5 -27t-26.5 -11zM77 513
q-16 0 -27 11t-11 27q0 15 11 26.5t27 11.5q15 0 26.5 -11.5t11.5 -26.5q0 -16 -11.5 -27t-26.5 -11zM99 -128q-34 0 -58.5 25t-24.5 59t24.5 58t58.5 24t59 -24t25 -58t-25 -59t-59 -25zM99 -92q20 0 34 14t14 34t-14 33.5t-34 13.5t-34 -13.5t-14 -33.5t14 -34t34 -14z
" />
    <glyph glyph-name="tehRing-ar.medi" unicode="&#x67c;" horiz-adv-x="348" 
d="M0 -5l7 53q41 0 67.5 6.5t44 28.5t31 67.5t28.5 123.5l52 -10q-9 -40 -15.5 -72t-6.5 -60q0 -24 9.5 -43t40.5 -30t96 -11q14 0 20 -7.5t6 -17.5q0 -11 -9 -19.5t-23 -8.5q-83 0 -123 21t-48 62q-19 -36 -42.5 -53.5t-56 -23.5t-78.5 -6zM102 -127q-34 0 -58.5 25
t-24.5 59t24.5 58t58.5 24t59 -24t25 -58t-25 -59t-59 -25zM102 -91q20 0 34 14t14 34t-14 33.5t-34 13.5t-34 -13.5t-14 -33.5t14 -34t34 -14zM259 398q-16 0 -27.5 11t-11.5 27q0 15 11.5 26.5t27.5 11.5t26.5 -11.5t10.5 -26.5q0 -16 -10.5 -27t-26.5 -11zM138 398
q-16 0 -27 11t-11 27q0 15 11 26.5t27 11.5q15 0 26.5 -11.5t11.5 -26.5q0 -16 -11.5 -27t-26.5 -11z" />
    <glyph glyph-name="tehRing-ar.fina" unicode="&#x67c;" horiz-adv-x="1062" 
d="M400 -21q-176 0 -268 46t-92 152q0 35 8 74t18 74l49 -13q-7 -26 -14.5 -58t-7.5 -63q0 -88 78.5 -123.5t254.5 -35.5q351 0 483 188l43 -23q-10 -26 -14 -43.5t-4 -31.5q0 -21 11 -38t40.5 -26.5t83.5 -9.5q13 0 19 -7.5t6 -17.5q0 -11 -9 -19.5t-23 -8.5
q-88 0 -134.5 29.5t-42.5 89.5q-69 -62 -185 -98.5t-300 -36.5zM543 417q-16 0 -27.5 11t-11.5 27q0 15 11.5 26.5t27.5 11.5t26.5 -11.5t10.5 -26.5q0 -16 -10.5 -27t-26.5 -11zM422 417q-16 0 -27 11t-11 27q0 15 11 26.5t27 11.5q15 0 26.5 -11.5t11.5 -26.5
q0 -16 -11.5 -27t-26.5 -11zM476 -152q-34 0 -58.5 25t-24.5 59t24.5 58t58.5 24t59 -24t25 -58t-25 -59t-59 -25zM476 -116q20 0 34 14t14 34t-14 33.5t-34 13.5t-34 -13.5t-14 -33.5t14 -34t34 -14z" />
    <glyph glyph-name="tehThreedotsdown-ar.init" unicode="&#x67d;" horiz-adv-x="284" 
d="M0 -5l7 53q61 0 94.5 8.5t46 30.5t12.5 62t-15 96t-38 119l52 19q22 -57 36.5 -119t14.5 -104q0 -58 -19.5 -94t-65 -53.5t-125.5 -17.5zM77 609q-16 0 -27 11.5t-11 26.5q0 16 11 27t27 11t27 -11t11 -27q0 -15 -11 -26.5t-27 -11.5zM198 609q-16 0 -27.5 11.5
t-11.5 26.5q0 16 11.5 27t27.5 11t26.5 -11t10.5 -27q0 -15 -10.5 -26.5t-26.5 -11.5zM138 513q-16 0 -27.5 11t-11.5 27q0 15 11.5 26.5t27.5 11.5t26.5 -11.5t10.5 -26.5q0 -16 -10.5 -27t-26.5 -11z" />
    <glyph glyph-name="tehThreedotsdown-ar.medi" unicode="&#x67d;" horiz-adv-x="362" 
d="M0 -5l7 53q42 0 70.5 7t48 29.5t34 68t28.5 121.5l52 -10q-9 -40 -15.5 -72t-6.5 -60q0 -18 3.5 -33.5t17.5 -26.5t45 -17.5t85 -6.5q13 0 19 -7.5t6 -17.5q0 -11 -9 -19.5t-23 -8.5q-95 0 -132 21t-44 62q-20 -36 -45 -54t-59.5 -23.5t-81.5 -5.5zM143 494
q-16 0 -27 11.5t-11 26.5q0 16 11 27t27 11t27 -11t11 -27q0 -15 -11 -26.5t-27 -11.5zM264 494q-16 0 -27.5 11.5t-11.5 26.5q0 16 11.5 27t27.5 11t26.5 -11t10.5 -27q0 -15 -10.5 -26.5t-26.5 -11.5zM204 398q-16 0 -27.5 11t-11.5 27q0 15 11.5 26.5t27.5 11.5
t26.5 -11.5t10.5 -26.5q0 -16 -10.5 -27t-26.5 -11z" />
    <glyph glyph-name="tehThreedotsdown-ar.fina" unicode="&#x67d;" horiz-adv-x="1062" 
d="M400 -21q-176 0 -268 46t-92 152q0 35 8 74t18 74l49 -13q-7 -26 -14.5 -58t-7.5 -63q0 -88 78.5 -123.5t254.5 -35.5q351 0 483 188l43 -23q-10 -26 -14 -43.5t-4 -31.5q0 -21 11 -38t40.5 -26.5t83.5 -9.5q13 0 19 -7.5t6 -17.5q0 -11 -9 -19.5t-23 -8.5
q-88 0 -134.5 29.5t-42.5 89.5q-69 -62 -185 -98.5t-300 -36.5zM422 513q-16 0 -27 11.5t-11 26.5q0 16 11 27t27 11t27 -11t11 -27q0 -15 -11 -26.5t-27 -11.5zM543 513q-16 0 -27.5 11.5t-11.5 26.5q0 16 11.5 27t27.5 11t26.5 -11t10.5 -27q0 -15 -10.5 -26.5
t-26.5 -11.5zM483 417q-16 0 -27.5 11t-11.5 27q0 15 11.5 26.5t27.5 11.5t26.5 -11.5t10.5 -26.5q0 -16 -10.5 -27t-26.5 -11z" />
    <glyph glyph-name="hahHamzaabove-ar.init" unicode="&#x681;" horiz-adv-x="576" 
d="M0 -5l6 53q112 0 205 32t193 96q-56 45 -116 72t-130 27q-25 0 -46 -2.5t-48 -10.5l-10 50q26 8 52 12t52 4q53 0 94.5 -13t75 -32t62 -38t54.5 -32t54 -13h23l5 -47q-44 0 -82.5 -16t-78.5 -39.5t-90 -47t-116.5 -39.5t-158.5 -16zM67 446l-9 38q20 5 34.5 8t28.5 7
q-26 12 -43 35t-17 50q0 42 29.5 63.5t67.5 21.5q25 0 47 -8l-6 -35q-20 6 -41 6q-29 0 -44 -13.5t-15 -33.5q0 -28 23 -46.5t49 -25.5q39 11 66 22l12 -35q-24 -9 -56.5 -19.5t-65.5 -19.5t-60 -15z" />
    <glyph glyph-name="hahHamzaabove-ar.medi" unicode="&#x681;" horiz-adv-x="622" 
d="M0 -5l6 53q112 0 205 32t193 96q-56 45 -116 72t-130 27q-25 0 -46 -2.5t-48 -10.5l-10 50q26 8 52 12t52 4q53 0 94.5 -13t75 -32t62 -38t54.5 -32t54 -13h23l5 -47q-20 0 -38.5 -4t-36.5 -10q13 -41 35.5 -60.5t57 -25t84.5 -5.5q14 0 20 -7.5t6 -17.5q0 -11 -9 -19.5
t-23 -8.5q-53 0 -95.5 7t-72.5 34t-44 85q-35 -17 -73 -39t-85 -41.5t-108.5 -32.5t-143.5 -13zM65 446l-9 38q20 5 34.5 8t28.5 7q-26 12 -43 35t-17 50q0 42 29.5 63.5t67.5 21.5q25 0 47 -8l-6 -35q-20 6 -41 6q-29 0 -44 -13.5t-15 -33.5q0 -28 23 -46.5t49 -25.5
q39 11 66 22l12 -35q-24 -9 -56.5 -19.5t-65.5 -19.5t-60 -15z" />
    <glyph glyph-name="hahHamzaabove-ar.fina" unicode="&#x681;" horiz-adv-x="650" 
d="M365 -271q-95 0 -171 29.5t-120.5 86t-44.5 137.5q0 73 31.5 136t85.5 113t123.5 85t145.5 52q-39 10 -76 24t-79 25t-94 11q-36 0 -61 -6.5t-45 -12.5l-9 49q23 9 56 16t69 7q52 0 95.5 -12t84.5 -28t87.5 -29t104.5 -14h9l1 -54q-56 -1 -119 -17q5 -95 21.5 -151
t44.5 -83.5t66 -36t85 -8.5q14 0 20 -7.5t6 -17.5q0 -11 -9 -19.5t-23 -8.5q-52 0 -96.5 10t-78.5 41.5t-54.5 95.5t-24.5 173q-59 -19 -115 -49.5t-101 -72t-71.5 -93.5t-26.5 -114q0 -68 40.5 -113.5t106.5 -68t143 -22.5q54 0 101.5 10.5t88.5 26.5l18 -45
q-48 -21 -103 -33t-112 -12zM230 606l-9 38q20 5 34.5 8t28.5 7q-26 12 -43 35t-17 50q0 42 29.5 63.5t67.5 21.5q25 0 47 -8l-6 -35q-20 6 -41 6q-29 0 -44 -13.5t-15 -33.5q0 -28 23 -46.5t49 -25.5q39 11 66 22l12 -35q-24 -9 -56.5 -19.5t-65.5 -19.5t-60 -15z" />
    <glyph glyph-name="hahTwodotsverticalabove-ar.init" unicode="&#x682;" horiz-adv-x="576" 
d="M0 -5l6 53q112 0 205 32t193 96q-56 45 -116 72t-130 27q-25 0 -46 -2.5t-48 -10.5l-10 50q26 8 52 12t52 4q53 0 94.5 -13t75 -32t62 -38t54.5 -32t54 -13h23l5 -47q-44 0 -82.5 -16t-78.5 -39.5t-90 -47t-116.5 -39.5t-158.5 -16zM158 565q-16 0 -27 11.5t-11 26.5
q0 16 11 27t27 11t26.5 -11t10.5 -27q0 -15 -10.5 -26.5t-26.5 -11.5zM159 447q-16 0 -27 11t-11 27q0 15 11 26.5t27 11.5q15 0 26.5 -11.5t11.5 -26.5q0 -16 -11.5 -27t-26.5 -11z" />
    <glyph glyph-name="hahTwodotsverticalabove-ar.medi" unicode="&#x682;" horiz-adv-x="622" 
d="M0 -5l6 53q112 0 205 32t193 96q-56 45 -116 72t-130 27q-25 0 -46 -2.5t-48 -10.5l-10 50q26 8 52 12t52 4q53 0 94.5 -13t75 -32t62 -38t54.5 -32t54 -13h23l5 -47q-20 0 -38.5 -4t-36.5 -10q13 -41 35.5 -60.5t57 -25t84.5 -5.5q14 0 20 -7.5t6 -17.5q0 -11 -9 -19.5
t-23 -8.5q-53 0 -95.5 7t-72.5 34t-44 85q-35 -17 -73 -39t-85 -41.5t-108.5 -32.5t-143.5 -13zM156 564q-16 0 -27 11.5t-11 26.5q0 16 11 27t27 11t26.5 -11t10.5 -27q0 -15 -10.5 -26.5t-26.5 -11.5zM157 446q-16 0 -27 11t-11 27q0 15 11 26.5t27 11.5q15 0 26.5 -11.5
t11.5 -26.5q0 -16 -11.5 -27t-26.5 -11z" />
    <glyph glyph-name="hahTwodotsverticalabove-ar.fina" unicode="&#x682;" horiz-adv-x="650" 
d="M365 -271q-95 0 -171 29.5t-120.5 86t-44.5 137.5q0 73 31.5 136t85.5 113t123.5 85t145.5 52q-39 10 -76 24t-79 25t-94 11q-36 0 -61 -6.5t-45 -12.5l-9 49q23 9 56 16t69 7q52 0 95.5 -12t84.5 -28t87.5 -29t104.5 -14h9l1 -54q-56 -1 -119 -17q5 -95 21.5 -151
t44.5 -83.5t66 -36t85 -8.5q14 0 20 -7.5t6 -17.5q0 -11 -9 -19.5t-23 -8.5q-52 0 -96.5 10t-78.5 41.5t-54.5 95.5t-24.5 173q-59 -19 -115 -49.5t-101 -72t-71.5 -93.5t-26.5 -114q0 -68 40.5 -113.5t106.5 -68t143 -22.5q54 0 101.5 10.5t88.5 26.5l18 -45
q-48 -21 -103 -33t-112 -12zM321 725q-16 0 -27 11.5t-11 26.5q0 16 11 27t27 11t26.5 -11t10.5 -27q0 -15 -10.5 -26.5t-26.5 -11.5zM322 607q-16 0 -27 11t-11 27q0 15 11 26.5t27 11.5q15 0 26.5 -11.5t11.5 -26.5q0 -16 -11.5 -27t-26.5 -11z" />
    <glyph glyph-name="hahThreedotsabove-ar.init" unicode="&#x685;" horiz-adv-x="576" 
d="M0 -5l6 53q112 0 205 32t193 96q-56 45 -116 72t-130 27q-25 0 -46 -2.5t-48 -10.5l-10 50q26 8 52 12t52 4q53 0 94.5 -13t75 -32t62 -38t54.5 -32t54 -13h23l5 -47q-44 0 -82.5 -16t-78.5 -39.5t-90 -47t-116.5 -39.5t-158.5 -16zM160 543q-15 0 -26.5 11.5t-11.5 26.5
q0 16 11.5 27t26.5 11q16 0 27 -11t11 -27q0 -15 -11 -26.5t-27 -11.5zM100 447q-15 0 -26 11t-11 27q0 15 11 26.5t26 11.5q16 0 27 -11.5t11 -26.5q0 -16 -11 -27t-27 -11zM221 447q-16 0 -27 11t-11 27q0 15 11 26.5t27 11.5t27 -11.5t11 -26.5q0 -16 -11 -27t-27 -11z
" />
    <glyph glyph-name="hahThreedotsabove-ar.medi" unicode="&#x685;" horiz-adv-x="622" 
d="M0 -5l6 53q112 0 205 32t193 96q-56 45 -116 72t-130 27q-25 0 -46 -2.5t-48 -10.5l-10 50q26 8 52 12t52 4q53 0 94.5 -13t75 -32t62 -38t54.5 -32t54 -13h23l5 -47q-20 0 -38.5 -4t-36.5 -10q13 -41 35.5 -60.5t57 -25t84.5 -5.5q14 0 20 -7.5t6 -17.5q0 -11 -9 -19.5
t-23 -8.5q-53 0 -95.5 7t-72.5 34t-44 85q-35 -17 -73 -39t-85 -41.5t-108.5 -32.5t-143.5 -13zM158 542q-15 0 -26.5 11.5t-11.5 26.5q0 16 11.5 27t26.5 11q16 0 27 -11t11 -27q0 -15 -11 -26.5t-27 -11.5zM98 446q-15 0 -26 11t-11 27q0 15 11 26.5t26 11.5
q16 0 27 -11.5t11 -26.5q0 -16 -11 -27t-27 -11zM219 446q-16 0 -27 11t-11 27q0 15 11 26.5t27 11.5t27 -11.5t11 -26.5q0 -16 -11 -27t-27 -11z" />
    <glyph glyph-name="hahThreedotsabove-ar.fina" unicode="&#x685;" horiz-adv-x="650" 
d="M365 -271q-95 0 -171 29.5t-120.5 86t-44.5 137.5q0 73 31.5 136t85.5 113t123.5 85t145.5 52q-39 10 -76 24t-79 25t-94 11q-36 0 -61 -6.5t-45 -12.5l-9 49q23 9 56 16t69 7q52 0 95.5 -12t84.5 -28t87.5 -29t104.5 -14h9l1 -54q-56 -1 -119 -17q5 -95 21.5 -151
t44.5 -83.5t66 -36t85 -8.5q14 0 20 -7.5t6 -17.5q0 -11 -9 -19.5t-23 -8.5q-52 0 -96.5 10t-78.5 41.5t-54.5 95.5t-24.5 173q-59 -19 -115 -49.5t-101 -72t-71.5 -93.5t-26.5 -114q0 -68 40.5 -113.5t106.5 -68t143 -22.5q54 0 101.5 10.5t88.5 26.5l18 -45
q-48 -21 -103 -33t-112 -12zM323 703q-15 0 -26.5 11.5t-11.5 26.5q0 16 11.5 27t26.5 11q16 0 27 -11t11 -27q0 -15 -11 -26.5t-27 -11.5zM263 607q-15 0 -26 11t-11 27q0 15 11 26.5t26 11.5q16 0 27 -11.5t11 -26.5q0 -16 -11 -27t-27 -11zM384 607q-16 0 -27 11t-11 27
q0 15 11 26.5t27 11.5t27 -11.5t11 -26.5q0 -16 -11 -27t-27 -11z" />
    <glyph glyph-name="dalRing-ar.fina" unicode="&#x689;" horiz-adv-x="520" 
d="M198 48q76 0 107 26.5t31 71.5q0 40 -32.5 110t-101.5 168l44 29q66 -95 99 -167t46 -124q16 -64 48.5 -89t86.5 -25q14 0 20 -7.5t6 -17.5q0 -11 -9 -19.5t-23 -8.5q-112 0 -149 84q-16 -36 -55.5 -60.5t-116.5 -24.5q-47 0 -92 11.5t-73 32.5l25 45q25 -17 62.5 -26
t76.5 -9zM214 -136q-34 0 -58.5 25t-24.5 59t24.5 58t58.5 24t59 -24t25 -58t-25 -59t-59 -25zM214 -100q20 0 34 14t14 34t-14 33.5t-34 13.5t-34 -13.5t-14 -33.5t14 -34t34 -14z" />
    <glyph glyph-name="dalDotbelow-ar.fina" unicode="&#x68a;" horiz-adv-x="520" 
d="M198 48q76 0 107 26.5t31 71.5q0 40 -32.5 110t-101.5 168l44 29q66 -95 99 -167t46 -124q16 -64 48.5 -89t86.5 -25q14 0 20 -7.5t6 -17.5q0 -11 -9 -19.5t-23 -8.5q-112 0 -149 84q-16 -36 -55.5 -60.5t-116.5 -24.5q-47 0 -92 11.5t-73 32.5l25 45q25 -17 62.5 -26
t76.5 -9zM209 -182q-16 0 -27 11.5t-11 26.5q0 16 11 27t27 11t27 -11t11 -27q0 -15 -11 -26.5t-27 -11.5z" />
    <glyph glyph-name="dalDotbelowTah-ar.fina" unicode="&#x68b;" horiz-adv-x="520" 
d="M198 48q76 0 107 26.5t31 71.5q0 40 -32.5 110t-101.5 168l44 29q66 -95 99 -167t46 -124q16 -64 48.5 -89t86.5 -25q14 0 20 -7.5t6 -17.5q0 -11 -9 -19.5t-23 -8.5q-112 0 -149 84q-16 -36 -55.5 -60.5t-116.5 -24.5q-47 0 -92 11.5t-73 32.5l25 45q25 -17 62.5 -26
t76.5 -9zM195 585q-16 0 -38 1.5t-42 3t-31 3.5l1 38q17 -2 30 -3q11 19 23 37l-5 176h36l6 -134q20 20 43.5 32.5t48.5 12.5q32 0 51 -20.5t19 -51.5q0 -23 -14 -45t-45 -36t-83 -14zM262 713q-23 0 -44 -15.5t-38 -36t-28 -36.5q24 -2 41 -2q54 0 80 16t26 38q0 36 -37 36
zM209 -182q-16 0 -27 11.5t-11 26.5q0 16 11 27t27 11t27 -11t11 -27q0 -15 -11 -26.5t-27 -11.5z" />
    <glyph glyph-name="dalThreedotsdown-ar.fina" unicode="&#x68f;" horiz-adv-x="520" 
d="M198 48q76 0 107 26.5t31 71.5q0 40 -32.5 110t-101.5 168l44 29q66 -95 99 -167t46 -124q16 -64 48.5 -89t86.5 -25q14 0 20 -7.5t6 -17.5q0 -11 -9 -19.5t-23 -8.5q-112 0 -149 84q-16 -36 -55.5 -60.5t-116.5 -24.5q-47 0 -92 11.5t-73 32.5l25 45q25 -17 62.5 -26
t76.5 -9zM143 666q-16 0 -27 11.5t-11 26.5q0 16 11 27t27 11t27 -11t11 -27q0 -15 -11 -26.5t-27 -11.5zM264 666q-16 0 -27.5 11.5t-11.5 26.5q0 16 11.5 27t27.5 11t26.5 -11t10.5 -27q0 -15 -10.5 -26.5t-26.5 -11.5zM204 570q-16 0 -27.5 11t-11.5 27q0 15 11.5 26.5
t27.5 11.5t26.5 -11.5t10.5 -26.5q0 -16 -10.5 -27t-26.5 -11z" />
    <glyph glyph-name="dalFourdots-ar.fina" unicode="&#x690;" horiz-adv-x="520" 
d="M198 48q76 0 107 26.5t31 71.5q0 40 -32.5 110t-101.5 168l44 29q66 -95 99 -167t46 -124q16 -64 48.5 -89t86.5 -25q14 0 20 -7.5t6 -17.5q0 -11 -9 -19.5t-23 -8.5q-112 0 -149 84q-16 -36 -55.5 -60.5t-116.5 -24.5q-47 0 -92 11.5t-73 32.5l25 45q25 -17 62.5 -26
t76.5 -9zM145 686q-16 0 -27.5 11.5t-11.5 26.5q0 16 11.5 27t27.5 11q15 0 26 -11t11 -27q0 -15 -11 -26.5t-26 -11.5zM265 686q-16 0 -27 11.5t-11 26.5q0 16 11 27t27 11q15 0 26.5 -11t11.5 -27q0 -15 -11.5 -26.5t-26.5 -11.5zM143 570q-16 0 -27 11t-11 27
q0 15 11 26.5t27 11.5t27 -11.5t11 -26.5q0 -16 -11 -27t-27 -11zM264 570q-16 0 -27.5 11t-11.5 27q0 15 11.5 26.5t27.5 11.5t26.5 -11.5t10.5 -26.5q0 -16 -10.5 -27t-26.5 -11z" />
    <glyph glyph-name="rehv-ar.fina" unicode="&#x692;" horiz-adv-x="409" 
d="M4 -231l-19 50q127 44 189.5 120.5t62.5 160.5q0 46 -21.5 100.5t-51.5 105.5l48 26q27 -51 46.5 -98t29.5 -86q13 -50 43.5 -75t84.5 -25q14 0 19.5 -7.5t5.5 -17.5q0 -11 -9 -19.5t-23 -8.5q-47 0 -78.5 17t-48.5 45q-8 -56 -35.5 -102.5t-68 -83.5t-86 -62.5
t-88.5 -39.5zM147 484q-9 21 -25 54.5t-33.5 67.5t-29.5 55l32 18q8 -12 22 -39t29 -57.5t26 -53.5q11 28 24.5 60t25.5 58.5t17 35.5l32 -14q-5 -10 -16 -33.5t-23.5 -51.5t-23 -54t-16.5 -42z" />
    <glyph glyph-name="rehRing-ar.fina" unicode="&#x693;" horiz-adv-x="409" 
d="M4 -231l-19 50q127 44 189.5 120.5t62.5 160.5q0 46 -21.5 100.5t-51.5 105.5l48 26q27 -51 46.5 -98t29.5 -86q13 -50 43.5 -75t84.5 -25q14 0 19.5 -7.5t5.5 -17.5q0 -11 -9 -19.5t-23 -8.5q-47 0 -78.5 17t-48.5 45q-8 -56 -35.5 -102.5t-68 -83.5t-86 -62.5
t-88.5 -39.5zM238 -222q-34 0 -58.5 25t-24.5 59t24.5 58t58.5 24t59 -24t25 -58t-25 -59t-59 -25zM238 -186q20 0 34 14t14 34t-14 33.5t-34 13.5t-34 -13.5t-14 -33.5t14 -34t34 -14z" />
    <glyph glyph-name="rehDotbelow-ar.fina" unicode="&#x694;" horiz-adv-x="409" 
d="M4 -231l-19 50q127 44 189.5 120.5t62.5 160.5q0 46 -21.5 100.5t-51.5 105.5l48 26q27 -51 46.5 -98t29.5 -86q13 -50 43.5 -75t84.5 -25q14 0 19.5 -7.5t5.5 -17.5q0 -11 -9 -19.5t-23 -8.5q-47 0 -78.5 17t-48.5 45q-8 -56 -35.5 -102.5t-68 -83.5t-86 -62.5
t-88.5 -39.5zM207 -269q-16 0 -27 11t-11 26q0 16 11 27.5t27 11.5t27 -11.5t11 -27.5q0 -15 -11 -26t-27 -11z" />
    <glyph glyph-name="rehVbelow-ar.fina" unicode="&#x695;" horiz-adv-x="409" 
d="M4 -231l-19 50q127 44 189.5 120.5t62.5 160.5q0 46 -21.5 100.5t-51.5 105.5l48 26q27 -51 46.5 -98t29.5 -86q13 -50 43.5 -75t84.5 -25q14 0 19.5 -7.5t5.5 -17.5q0 -11 -9 -19.5t-23 -8.5q-47 0 -78.5 17t-48.5 45q-8 -56 -35.5 -102.5t-68 -83.5t-86 -62.5
t-88.5 -39.5zM55.3984 -73.1973q-7.19922 16 -19.999 42.3994t-26.7998 52.7998q-14 26.3994 -23.5996 43.1992l25.5996 13.5996q6.40039 -9.59961 17.5996 -30.3994q11.2002 -20.7998 23.2002 -44.3994q11.999 -23.5996 20.7988 -41.1992q8.7998 21.5996 19.6006 46.7988
q10.7998 25.2002 20.3994 45.5996t13.5996 26.7998l25.5996 -11.2002q-4 -8 -12.7998 -25.999q-8.7998 -18 -18.7998 -39.5996t-18.3994 -42q-8.40039 -20.3994 -13.2002 -33.1992z" />
    <glyph glyph-name="rehDotbelowdotabove-ar.fina" unicode="&#x696;" horiz-adv-x="409" 
d="M4 -231l-19 50q127 44 189.5 120.5t62.5 160.5q0 46 -21.5 100.5t-51.5 105.5l48 26q27 -51 46.5 -98t29.5 -86q13 -50 43.5 -75t84.5 -25q14 0 19.5 -7.5t5.5 -17.5q0 -11 -9 -19.5t-23 -8.5q-47 0 -78.5 17t-48.5 45q-8 -56 -35.5 -102.5t-68 -83.5t-86 -62.5
t-88.5 -39.5zM58 9q-16 0 -27 11t-11 27q0 15 11 26.5t27 11.5t27 -11.5t11 -26.5q0 -16 -11 -27t-27 -11zM207 -269q-16 0 -27 11t-11 26q0 16 11 27.5t27 11.5t27 -11.5t11 -27.5q0 -15 -11 -26t-27 -11z" />
    <glyph glyph-name="rehTwodots-ar.fina" unicode="&#x697;" horiz-adv-x="409" 
d="M4 -231l-19 50q127 44 189.5 120.5t62.5 160.5q0 46 -21.5 100.5t-51.5 105.5l48 26q27 -51 46.5 -98t29.5 -86q13 -50 43.5 -75t84.5 -25q14 0 19.5 -7.5t5.5 -17.5q0 -11 -9 -19.5t-23 -8.5q-47 0 -78.5 17t-48.5 45q-8 -56 -35.5 -102.5t-68 -83.5t-86 -62.5
t-88.5 -39.5zM229 470q-16 0 -27.5 11t-11.5 27q0 15 11.5 26.5t27.5 11.5t26.5 -11.5t10.5 -26.5q0 -16 -10.5 -27t-26.5 -11zM108 470q-16 0 -27 11t-11 27q0 15 11 26.5t27 11.5q15 0 26.5 -11.5t11.5 -26.5q0 -16 -11.5 -27t-26.5 -11z" />
    <glyph glyph-name="rehFourdots-ar.fina" unicode="&#x699;" horiz-adv-x="409" 
d="M4 -231l-19 50q127 44 189.5 120.5t62.5 160.5q0 46 -21.5 100.5t-51.5 105.5l48 26q27 -51 46.5 -98t29.5 -86q13 -50 43.5 -75t84.5 -25q14 0 19.5 -7.5t5.5 -17.5q0 -11 -9 -19.5t-23 -8.5q-47 0 -78.5 17t-48.5 45q-8 -56 -35.5 -102.5t-68 -83.5t-86 -62.5
t-88.5 -39.5zM110 586q-16 0 -27.5 11.5t-11.5 26.5q0 16 11.5 27t27.5 11q15 0 26 -11t11 -27q0 -15 -11 -26.5t-26 -11.5zM230 586q-16 0 -27 11.5t-11 26.5q0 16 11 27t27 11q15 0 26.5 -11t11.5 -27q0 -15 -11.5 -26.5t-26.5 -11.5zM108 470q-16 0 -27 11t-11 27
q0 15 11 26.5t27 11.5t27 -11.5t11 -26.5q0 -16 -11 -27t-27 -11zM229 470q-16 0 -27.5 11t-11.5 27q0 15 11.5 26.5t27.5 11.5t26.5 -11.5t10.5 -26.5q0 -16 -10.5 -27t-26.5 -11z" />
    <glyph glyph-name="seenDotbelowDotabove-ar.init" unicode="&#x69a;" horiz-adv-x="762" 
d="M0 -5l7 53q35 0 56.5 5t36.5 25t28 63.5t30 119.5l48 -13q-6 -26 -14 -62t-8 -68q0 -39 22 -54.5t72 -15.5q33 0 54 7t34 29t23 66.5t21 119.5l49 -9q-5 -34 -11.5 -75.5t-6.5 -67.5q0 -38 21 -54t78 -16q28 0 51.5 7t38 29t14.5 68t-16.5 101t-35.5 110l53 20
q17 -52 33 -112.5t16 -110.5q0 -62 -21 -98.5t-57 -51.5t-79 -15q-60 0 -88 18t-39 49q-20 -39 -51 -53t-88 -14q-25 0 -49 5.5t-43 22.5t-27 49q-23 -50 -60 -63.5t-92 -13.5zM373 -182q-16 0 -27 11.5t-11 26.5q0 16 11 27t27 11t27 -11t11 -27q0 -15 -11 -26.5t-27 -11.5
zM417 451q-16 0 -27 11t-11 27q0 15 11 26.5t27 11.5t27 -11.5t11 -26.5q0 -16 -11 -27t-27 -11z" />
    <glyph glyph-name="seenDotbelowDotabove-ar.medi" unicode="&#x69a;" horiz-adv-x="832" 
d="M0 -5l7 53q32 0 53.5 4t37 22.5t29.5 62.5t31 124l48 -13q-6 -26 -14 -62t-8 -66q0 -39 20.5 -55.5t70.5 -16.5q32 0 53 6t35 27.5t25 66t22 122.5l50 -9q-3 -18 -7.5 -44.5t-8 -53t-3.5 -43.5q0 -35 19.5 -53.5t77.5 -18.5q57 0 80.5 22t23.5 74q0 34 -3 86t-7 100l48 4
q5 -92 13 -148t24 -86t45 -41t76 -11q14 0 20 -7.5t6 -17.5q0 -11 -9 -19.5t-23 -8.5q-65 0 -103.5 24.5t-52.5 67.5q-17 -57 -56 -74.5t-86 -17.5q-55 0 -84 17.5t-40 54.5q-20 -39 -51 -55.5t-91 -16.5q-22 0 -45.5 5.5t-42.5 22t-27 48.5q-24 -49 -61 -62.5t-92 -13.5z
M373 -182q-16 0 -27 11.5t-11 26.5q0 16 11 27t27 11t27 -11t11 -27q0 -15 -11 -26.5t-27 -11.5zM425 451q-16 0 -27 11t-11 27q0 15 11 26.5t27 11.5t27 -11.5t11 -26.5q0 -16 -11 -27t-27 -11z" />
    <glyph glyph-name="seenDotbelowDotabove-ar.fina" unicode="&#x69a;" horiz-adv-x="1220" 
d="M308 -231q-70 0 -131 24.5t-99 73.5t-38 121q0 38 10 81.5t37 104.5l47 -20q-40 -92 -40 -161q0 -59 30.5 -97t80 -56t106.5 -18q72 0 119 18.5t73.5 49t37.5 66.5t11 70q0 58 -13.5 116t-29.5 117l53 15q15 -57 21.5 -86.5t14.5 -53.5q15 -52 36.5 -69t63.5 -17
q24 0 42 5.5t31.5 26t25 66t21.5 126.5l50 -9q-7 -44 -13 -80.5t-6 -62.5q0 -24 6 -40t26.5 -24t64.5 -8q99 0 99 96q0 34 -3 87t-8 101l49 4q6 -83 11.5 -138.5t18.5 -88t39.5 -47t73.5 -14.5q14 0 20 -7.5t6 -17.5q0 -11 -9 -19.5t-23 -8.5q-57 0 -93 24t-51 62
q-15 -46 -50 -66t-84 -20q-58 0 -86 16.5t-38 49.5q-19 -36 -48 -51t-74 -15q-34 0 -55.5 9t-34.5 24q-3 -51 -19.5 -97.5t-50 -83t-89.5 -57.5t-139 -21zM825 -179q-16 0 -27 11.5t-11 26.5q0 16 11 27t27 11t27 -11t11 -27q0 -15 -11 -26.5t-27 -11.5zM809 451
q-16 0 -27 11t-11 27q0 15 11 26.5t27 11.5t27 -11.5t11 -26.5q0 -16 -11 -27t-27 -11z" />
    <glyph glyph-name="seenThreedotsbelow-ar.init" unicode="&#x69b;" horiz-adv-x="762" 
d="M0 -5l7 53q35 0 56.5 5t36.5 25t28 63.5t30 119.5l48 -13q-6 -26 -14 -62t-8 -68q0 -39 22 -54.5t72 -15.5q33 0 54 7t34 29t23 66.5t21 119.5l49 -9q-5 -34 -11.5 -75.5t-6.5 -67.5q0 -38 21 -54t78 -16q28 0 51.5 7t38 29t14.5 68t-16.5 101t-35.5 110l53 20
q17 -52 33 -112.5t16 -110.5q0 -62 -21 -98.5t-57 -51.5t-79 -15q-60 0 -88 18t-39 49q-20 -39 -51 -53t-88 -14q-25 0 -49 5.5t-43 22.5t-27 49q-23 -50 -60 -63.5t-92 -13.5zM316 -140q-15 0 -25.5 10t-10.5 25t10.5 25.5t25.5 10.5q14 0 25 -10.5t11 -25.5t-11 -25
t-25 -10zM430 -140q-15 0 -25.5 10t-10.5 25t10.5 25.5t25.5 10.5q14 0 24.5 -10.5t10.5 -25.5t-10.5 -25t-24.5 -10zM373 -232q-15 0 -25.5 10.5t-10.5 24.5q0 15 10.5 26t25.5 11q14 0 24.5 -11t10.5 -26q0 -14 -10.5 -24.5t-24.5 -10.5z" />
    <glyph glyph-name="seenThreedotsbelow-ar.medi" unicode="&#x69b;" horiz-adv-x="832" 
d="M0 -5l7 53q32 0 53.5 4t37 22.5t29.5 62.5t31 124l48 -13q-6 -26 -14 -62t-8 -66q0 -39 20.5 -55.5t70.5 -16.5q32 0 53 6t35 27.5t25 66t22 122.5l50 -9q-3 -18 -7.5 -44.5t-8 -53t-3.5 -43.5q0 -35 19.5 -53.5t77.5 -18.5q57 0 80.5 22t23.5 74q0 34 -3 86t-7 100l48 4
q5 -92 13 -148t24 -86t45 -41t76 -11q14 0 20 -7.5t6 -17.5q0 -11 -9 -19.5t-23 -8.5q-65 0 -103.5 24.5t-52.5 67.5q-17 -57 -56 -74.5t-86 -17.5q-55 0 -84 17.5t-40 54.5q-20 -39 -51 -55.5t-91 -16.5q-22 0 -45.5 5.5t-42.5 22t-27 48.5q-24 -49 -61 -62.5t-92 -13.5z
M316 -140q-15 0 -25.5 10t-10.5 25t10.5 25.5t25.5 10.5q14 0 25 -10.5t11 -25.5t-11 -25t-25 -10zM430 -140q-15 0 -25.5 10t-10.5 25t10.5 25.5t25.5 10.5q14 0 24.5 -10.5t10.5 -25.5t-10.5 -25t-24.5 -10zM373 -232q-15 0 -25.5 10.5t-10.5 24.5q0 15 10.5 26t25.5 11
q14 0 24.5 -11t10.5 -26q0 -14 -10.5 -24.5t-24.5 -10.5z" />
    <glyph glyph-name="seenThreedotsbelow-ar.fina" unicode="&#x69b;" horiz-adv-x="1220" 
d="M308 -231q-70 0 -131 24.5t-99 73.5t-38 121q0 38 10 81.5t37 104.5l47 -20q-40 -92 -40 -161q0 -59 30.5 -97t80 -56t106.5 -18q72 0 119 18.5t73.5 49t37.5 66.5t11 70q0 58 -13.5 116t-29.5 117l53 15q15 -57 21.5 -86.5t14.5 -53.5q15 -52 36.5 -69t63.5 -17
q24 0 42 5.5t31.5 26t25 66t21.5 126.5l50 -9q-7 -44 -13 -80.5t-6 -62.5q0 -24 6 -40t26.5 -24t64.5 -8q99 0 99 96q0 34 -3 87t-8 101l49 4q6 -83 11.5 -138.5t18.5 -88t39.5 -47t73.5 -14.5q14 0 20 -7.5t6 -17.5q0 -11 -9 -19.5t-23 -8.5q-57 0 -93 24t-51 62
q-15 -46 -50 -66t-84 -20q-58 0 -86 16.5t-38 49.5q-19 -36 -48 -51t-74 -15q-34 0 -55.5 9t-34.5 24q-3 -51 -19.5 -97.5t-50 -83t-89.5 -57.5t-139 -21zM768 -138q-15 0 -25.5 10t-10.5 25t10.5 25.5t25.5 10.5q14 0 25 -10.5t11 -25.5t-11 -25t-25 -10zM882 -138
q-15 0 -25.5 10t-10.5 25t10.5 25.5t25.5 10.5q14 0 24.5 -10.5t10.5 -25.5t-10.5 -25t-24.5 -10zM825 -230q-15 0 -25.5 10.5t-10.5 24.5q0 15 10.5 26t25.5 11q14 0 24.5 -11t10.5 -26q0 -14 -10.5 -24.5t-24.5 -10.5z" />
    <glyph glyph-name="sadTwodotsbelow-ar.init" unicode="&#x69d;" horiz-adv-x="898" 
d="M474 -18q-133 0 -214 21.5t-100 77.5q-19 -39 -42 -57t-52 -23.5t-66 -5.5l7 53q38 0 62 8t39.5 31.5t28.5 68t29 116.5l48 -12q-8 -31 -16 -66t-8 -57q0 -31 21 -52.5t72 -33.5q60 81 125 147.5t133 106t137 39.5q76 0 123 -42t47 -114q0 -60 -37 -106.5t-119.5 -73
t-217.5 -26.5zM674 291q-46 0 -92 -23t-90 -60.5t-83.5 -81t-71.5 -84.5q57 -7 144 -7q152 0 234 37.5t82 110.5q0 45 -32.5 76.5t-90.5 31.5zM550 -195q-16 0 -27 11t-11 26q0 16 11 27.5t27 11.5q15 0 26.5 -11.5t11.5 -27.5q0 -15 -11.5 -26t-26.5 -11zM429 -195
q-16 0 -27 11t-11 26q0 16 11 27.5t27 11.5t26.5 -11.5t10.5 -27.5q0 -15 -10.5 -26t-26.5 -11z" />
    <glyph glyph-name="sadTwodotsbelow-ar.medi" unicode="&#x69d;" horiz-adv-x="949" 
d="M474 -18q-133 0 -214 21.5t-100 77.5q-19 -39 -42 -57t-52 -23.5t-66 -5.5l7 53q38 0 62 8t39.5 31.5t28.5 68t29 116.5l48 -12q-8 -31 -16 -66t-8 -57q0 -31 21 -52.5t72 -33.5q60 81 125 147.5t133 106t137 39.5q76 0 123 -42t47 -114q0 -60 -37 -106.5t-119.5 -73
t-217.5 -26.5zM674 291q-46 0 -92 -23t-90 -60.5t-83.5 -81t-71.5 -84.5q57 -7 144 -7q152 0 234 37.5t82 110.5q0 45 -32.5 76.5t-90.5 31.5zM949 -5q-25 0 -63 4.5t-77.5 17.5t-68.5 37l51 28q43 -21 87.5 -27.5t77.5 -6.5q14 0 19.5 -7.5t5.5 -17.5q0 -11 -9 -19.5
t-23 -8.5zM550 -195q-16 0 -27 11t-11 26q0 16 11 27.5t27 11.5q15 0 26.5 -11.5t11.5 -27.5q0 -15 -11.5 -26t-26.5 -11zM429 -195q-16 0 -27 11t-11 26q0 16 11 27.5t27 11.5t26.5 -11.5t10.5 -27.5q0 -15 -10.5 -26t-26.5 -11z" />
    <glyph glyph-name="sadTwodotsbelow-ar.fina" unicode="&#x69d;" horiz-adv-x="1346" 
d="M308 -231q-75 0 -135.5 26.5t-96.5 75.5t-36 117q0 38 10 81.5t37 104.5l47 -20q-40 -92 -40 -161q0 -55 28.5 -93t77.5 -58t111 -20q72 0 119 19.5t73.5 51t37.5 69.5t11 76q0 50 -13.5 106t-29.5 115l53 15q15 -57 21.5 -86t12.5 -47q10 -29 30.5 -49t58.5 -32
q58 80 122 146t131.5 105t137.5 39q56 0 93.5 -21.5t56 -57.5t18.5 -79q0 -69 -46 -114.5t-130 -68t-198 -22.5q-112 0 -173 18t-90 44q-2 -54 -17 -104.5t-48 -90t-90 -62.5t-144 -23zM1072 296q-44 0 -88.5 -21t-88 -56.5t-84 -79.5t-76.5 -90q54 -9 139 -9q62 0 119.5 7
t102.5 24t71.5 45.5t26.5 71.5q0 26 -12.5 51t-39.5 41t-70 16zM1347 -5q-25 0 -63 4.5t-77.5 17.5t-68.5 37l51 28q43 -21 87.5 -27.5t77.5 -6.5q14 0 19.5 -7.5t5.5 -17.5q0 -11 -9 -19.5t-23 -8.5zM961 -190q-16 0 -27 11t-11 26q0 16 11 27.5t27 11.5q15 0 26.5 -11.5
t11.5 -27.5q0 -15 -11.5 -26t-26.5 -11zM840 -190q-16 0 -27 11t-11 26q0 16 11 27.5t27 11.5t26.5 -11.5t10.5 -27.5q0 -15 -10.5 -26t-26.5 -11z" />
    <glyph glyph-name="sadThreedots-ar.init" unicode="&#x69e;" horiz-adv-x="898" 
d="M474 -18q-133 0 -214 21.5t-100 77.5q-19 -39 -42 -57t-52 -23.5t-66 -5.5l7 53q38 0 62 8t39.5 31.5t28.5 68t29 116.5l48 -12q-8 -31 -16 -66t-8 -57q0 -31 21 -52.5t72 -33.5q60 81 125 147.5t133 106t137 39.5q76 0 123 -42t47 -114q0 -60 -37 -106.5t-119.5 -73
t-217.5 -26.5zM674 291q-46 0 -92 -23t-90 -60.5t-83.5 -81t-71.5 -84.5q57 -7 144 -7q152 0 234 37.5t82 110.5q0 45 -32.5 76.5t-90.5 31.5zM650 559q-15 0 -26.5 11.5t-11.5 26.5q0 16 11.5 27t26.5 11q16 0 27 -11t11 -27q0 -15 -11 -26.5t-27 -11.5zM590 463
q-15 0 -26 11t-11 27q0 15 11 26.5t26 11.5q16 0 27 -11.5t11 -26.5q0 -16 -11 -27t-27 -11zM711 463q-16 0 -27 11t-11 27q0 15 11 26.5t27 11.5t27 -11.5t11 -26.5q0 -16 -11 -27t-27 -11z" />
    <glyph glyph-name="sadThreedots-ar.medi" unicode="&#x69e;" horiz-adv-x="949" 
d="M474 -18q-133 0 -214 21.5t-100 77.5q-19 -39 -42 -57t-52 -23.5t-66 -5.5l7 53q38 0 62 8t39.5 31.5t28.5 68t29 116.5l48 -12q-8 -31 -16 -66t-8 -57q0 -31 21 -52.5t72 -33.5q60 81 125 147.5t133 106t137 39.5q76 0 123 -42t47 -114q0 -60 -37 -106.5t-119.5 -73
t-217.5 -26.5zM674 291q-46 0 -92 -23t-90 -60.5t-83.5 -81t-71.5 -84.5q57 -7 144 -7q152 0 234 37.5t82 110.5q0 45 -32.5 76.5t-90.5 31.5zM949 -5q-25 0 -63 4.5t-77.5 17.5t-68.5 37l51 28q43 -21 87.5 -27.5t77.5 -6.5q14 0 19.5 -7.5t5.5 -17.5q0 -11 -9 -19.5
t-23 -8.5zM650 559q-15 0 -26.5 11.5t-11.5 26.5q0 16 11.5 27t26.5 11q16 0 27 -11t11 -27q0 -15 -11 -26.5t-27 -11.5zM590 463q-15 0 -26 11t-11 27q0 15 11 26.5t26 11.5q16 0 27 -11.5t11 -26.5q0 -16 -11 -27t-27 -11zM711 463q-16 0 -27 11t-11 27q0 15 11 26.5
t27 11.5t27 -11.5t11 -26.5q0 -16 -11 -27t-27 -11z" />
    <glyph glyph-name="sadThreedots-ar.fina" unicode="&#x69e;" horiz-adv-x="1346" 
d="M308 -231q-75 0 -135.5 26.5t-96.5 75.5t-36 117q0 38 10 81.5t37 104.5l47 -20q-40 -92 -40 -161q0 -55 28.5 -93t77.5 -58t111 -20q72 0 119 19.5t73.5 51t37.5 69.5t11 76q0 50 -13.5 106t-29.5 115l53 15q15 -57 21.5 -86t12.5 -47q10 -29 30.5 -49t58.5 -32
q58 80 122 146t131.5 105t137.5 39q56 0 93.5 -21.5t56 -57.5t18.5 -79q0 -69 -46 -114.5t-130 -68t-198 -22.5q-112 0 -173 18t-90 44q-2 -54 -17 -104.5t-48 -90t-90 -62.5t-144 -23zM1072 296q-44 0 -88.5 -21t-88 -56.5t-84 -79.5t-76.5 -90q54 -9 139 -9q62 0 119.5 7
t102.5 24t71.5 45.5t26.5 71.5q0 26 -12.5 51t-39.5 41t-70 16zM1347 -5q-25 0 -63 4.5t-77.5 17.5t-68.5 37l51 28q43 -21 87.5 -27.5t77.5 -6.5q14 0 19.5 -7.5t5.5 -17.5q0 -11 -9 -19.5t-23 -8.5zM1048 564q-15 0 -26.5 11.5t-11.5 26.5q0 16 11.5 27t26.5 11
q16 0 27 -11t11 -27q0 -15 -11 -26.5t-27 -11.5zM988 468q-15 0 -26 11t-11 27q0 15 11 26.5t26 11.5q16 0 27 -11.5t11 -26.5q0 -16 -11 -27t-27 -11zM1109 468q-16 0 -27 11t-11 27q0 15 11 26.5t27 11.5t27 -11.5t11 -26.5q0 -16 -11 -27t-27 -11z" />
    <glyph glyph-name="tahThreedots-ar.init" unicode="&#x69f;" horiz-adv-x="672" 
d="M0 -5l7 53h49q19 27 38 52l-19 614h52l20 -551q46 52 96 93.5t103 66t107 24.5q55 0 93 -21.5t57 -57t19 -78.5q0 -51 -34 -96.5t-116 -70.5q-63 -20 -150 -24t-217 -4h-105zM448 294q-47 0 -93.5 -23.5t-90 -61t-82.5 -80.5t-69 -81h142q155 0 236 35t81 107
q0 25 -13.5 49t-41 39.5t-69.5 15.5zM405 562q-15 0 -26.5 11.5t-11.5 26.5q0 16 11.5 27t26.5 11q16 0 27 -11t11 -27q0 -15 -11 -26.5t-27 -11.5zM345 466q-15 0 -26 11t-11 27q0 15 11 26.5t26 11.5q16 0 27 -11.5t11 -26.5q0 -16 -11 -27t-27 -11zM466 466q-16 0 -27 11
t-11 27q0 15 11 26.5t27 11.5t27 -11.5t11 -26.5q0 -16 -11 -27t-27 -11z" />
    <glyph glyph-name="tahThreedots-ar.medi" unicode="&#x69f;" horiz-adv-x="710" 
d="M0 -5l7 53h49q19 27 38 52l-19 614h52l20 -551q46 52 96 93.5t103 66t107 24.5q55 0 93 -21.5t57 -57t19 -78.5q0 -51 -34 -96.5t-116 -70.5q-63 -20 -150 -24t-217 -4h-105zM448 294q-47 0 -93.5 -23.5t-90 -61t-82.5 -80.5t-69 -81h142q155 0 236 35t81 107
q0 25 -13.5 49t-41 39.5t-69.5 15.5zM710 -5q-25 0 -63 4.5t-77.5 17.5t-68.5 37l51 28q43 -21 87.5 -27.5t77.5 -6.5q14 0 19.5 -7.5t5.5 -17.5q0 -11 -9 -19.5t-23 -8.5zM405 562q-15 0 -26.5 11.5t-11.5 26.5q0 16 11.5 27t26.5 11q16 0 27 -11t11 -27q0 -15 -11 -26.5
t-27 -11.5zM345 466q-15 0 -26 11t-11 27q0 15 11 26.5t26 11.5q16 0 27 -11.5t11 -26.5q0 -16 -11 -27t-27 -11zM466 466q-16 0 -27 11t-11 27q0 15 11 26.5t27 11.5t27 -11.5t11 -26.5q0 -16 -11 -27t-27 -11z" />
    <glyph glyph-name="tahThreedots-ar.fina" unicode="&#x69f;" horiz-adv-x="840" 
d="M364 -13q-70 0 -134.5 3t-116.5 7.5t-83 8.5l6 51q27 -4 63 -7t78 -5q23 32 45 61l-19 608h53l19 -545q71 79 147 130t155 51q82 0 125.5 -45t43.5 -113q0 -98 -94 -151.5t-288 -53.5zM573 296q-47 0 -94 -23.5t-91 -61.5t-83.5 -82.5t-72.5 -85.5q72 -3 142 -3
q96 0 168.5 15t113 47.5t40.5 85.5q0 43 -31 75.5t-92 32.5zM840 -5q-25 0 -63 4.5t-77.5 17.5t-68.5 37l51 28q43 -21 87.5 -27.5t77.5 -6.5q14 0 19.5 -7.5t5.5 -17.5q0 -11 -9 -19.5t-23 -8.5zM529 564q-15 0 -26.5 11.5t-11.5 26.5q0 16 11.5 27t26.5 11q16 0 27 -11
t11 -27q0 -15 -11 -26.5t-27 -11.5zM469 468q-15 0 -26 11t-11 27q0 15 11 26.5t26 11.5q16 0 27 -11.5t11 -26.5q0 -16 -11 -27t-27 -11zM590 468q-16 0 -27 11t-11 27q0 15 11 26.5t27 11.5t27 -11.5t11 -26.5q0 -16 -11 -27t-27 -11z" />
    <glyph glyph-name="ainThreedots-ar.init" unicode="&#x6a0;" horiz-adv-x="468" 
d="M0 -5l7 53q59 0 96.5 2t62 5t44.5 6q-34 11 -65 35t-51 59t-20 83q0 54 25 96t69 66t102 24q51 0 96 -16l-11 -49q-19 5 -41.5 9t-43.5 4q-61 0 -102.5 -37t-41.5 -97q0 -42 21 -71t51 -47.5t59.5 -27.5t46.5 -9q22 5 35.5 9.5t32 12t54.5 22.5l18 -47q-67 -27 -133 -46
t-141 -29t-170 -10zM263 642q-15 0 -26.5 11.5t-11.5 26.5q0 16 11.5 27t26.5 11q16 0 27 -11t11 -27q0 -15 -11 -26.5t-27 -11.5zM203 546q-15 0 -26 11t-11 27q0 15 11 26.5t26 11.5q16 0 27 -11.5t11 -26.5q0 -16 -11 -27t-27 -11zM324 546q-16 0 -27 11t-11 27
q0 15 11 26.5t27 11.5t27 -11.5t11 -26.5q0 -16 -11 -27t-27 -11z" />
    <glyph glyph-name="ainThreedots-ar.medi" unicode="&#x6a0;" horiz-adv-x="499" 
d="M0 -5l7 53q57 0 110 14.5t98 38.5q-31 38 -68.5 78.5t-74.5 70.5q-7 4 -11.5 18t-4.5 22q0 14 17.5 32t47.5 35.5t68 29t79 11.5q74 0 111.5 -31.5t37.5 -74.5q0 -49 -32.5 -101t-88.5 -95q48 -31 102.5 -39.5t107.5 -8.5q14 0 19.5 -7.5t5.5 -17.5q0 -11 -9 -19.5
t-23 -8.5q-66 0 -131 15t-117 55q-53 -31 -117 -50.5t-134 -19.5zM102 288q41 -37 79.5 -76.5t75.5 -84.5q50 34 79 74.5t29 76.5q0 14 -9.5 29.5t-32.5 26.5t-64 11q-35 0 -66.5 -9.5t-55.5 -22.5t-35 -25zM255 612q-15 0 -26.5 11.5t-11.5 26.5q0 16 11.5 27t26.5 11
q16 0 27 -11t11 -27q0 -15 -11 -26.5t-27 -11.5zM195 516q-15 0 -26 11t-11 27q0 15 11 26.5t26 11.5q16 0 27 -11.5t11 -26.5q0 -16 -11 -27t-27 -11zM316 516q-16 0 -27 11t-11 27q0 15 11 26.5t27 11.5t27 -11.5t11 -26.5q0 -16 -11 -27t-27 -11z" />
    <glyph glyph-name="ainThreedots-ar.fina" unicode="&#x6a0;" horiz-adv-x="554" 
d="M308 -271q-53 0 -103.5 9.5t-91 31.5t-64.5 59t-24 93q0 64 31 112t77.5 85.5t95.5 70.5q-27 34 -62.5 74t-73.5 70q-7 4 -11.5 18t-4.5 22q0 14 17.5 32t47.5 35t68 28.5t78 11.5q69 0 106.5 -31t37.5 -77q0 -61 -38.5 -105.5t-91.5 -83.5q42 -44 79.5 -74.5t80 -46
t99.5 -15.5q14 0 19.5 -7.5t5.5 -17.5q0 -11 -9 -19.5t-23 -8.5q-70 0 -120 21t-90.5 57t-83.5 81q-45 -31 -87 -64.5t-68.5 -73.5t-26.5 -91q0 -42 20 -69.5t53.5 -43.5t74.5 -23t82 -7q53 0 108.5 10.5t103.5 32.5l18 -43q-48 -24 -110.5 -38.5t-119.5 -14.5zM124 372
q73 -65 147 -153q46 33 78 66.5t32 74.5q0 12 -8.5 28t-30.5 28t-64 12q-32 0 -63 -9t-55 -22t-36 -25zM282 696q-15 0 -26.5 11.5t-11.5 26.5q0 16 11.5 27t26.5 11q16 0 27 -11t11 -27q0 -15 -11 -26.5t-27 -11.5zM222 600q-15 0 -26 11t-11 27q0 15 11 26.5t26 11.5
q16 0 27 -11.5t11 -26.5q0 -16 -11 -27t-27 -11zM343 600q-16 0 -27 11t-11 27q0 15 11 26.5t27 11.5t27 -11.5t11 -26.5q0 -16 -11 -27t-27 -11z" />
    <glyph glyph-name="dotlessfeh-ar.init" unicode="&#x6a1;" horiz-adv-x="439" 
d="M0 -5l7 53q48 0 96 2t88 8t65 19q27 12 46.5 33.5t28.5 61.5q-23 -9 -49 -12.5t-52 -3.5q-69 0 -111.5 30.5t-42.5 93.5q0 36 12 73t33.5 68.5t50.5 50.5t64 19q50 0 84 -35t51.5 -91t17.5 -120q0 -67 -20.5 -118t-73.5 -85q-41 -26 -115 -36.5t-180 -10.5zM127 293
q0 -49 29 -67t80 -18q56 0 101 16q1 13 1 27q0 46 -12.5 89t-37 70.5t-58.5 27.5q-26 0 -50 -22.5t-38.5 -56t-14.5 -66.5z" />
    <glyph glyph-name="dotlessfeh-ar.medi" unicode="&#x6a1;" horiz-adv-x="492" 
d="M0 -5l7 53q43 0 88.5 4.5t84.5 14.5q-21 13 -43 33.5t-37 50t-15 70.5q0 51 23.5 93t60.5 66.5t79 24.5q45 0 80 -26t55 -67t20 -86q0 -55 -27 -93.5t-70 -65.5q39 -7 88.5 -13t103.5 -6q14 0 20 -7.5t6 -17.5q0 -11 -9 -19.5t-23 -8.5q-41 0 -87 5.5t-89 14.5t-76 20
q-4 -1 -8 -3q-50 -20 -111 -28.5t-121 -8.5zM137 220q0 -51 30.5 -83t69.5 -51q49 22 81.5 54.5t32.5 83.5q0 26 -13 56t-36.5 51t-55.5 21q-27 0 -52 -18.5t-41 -48.5t-16 -65z" />
    <glyph glyph-name="dotlessfeh-ar.fina" unicode="&#x6a1;" horiz-adv-x="1088" 
d="M400 -21q-176 0 -268 46t-92 152q0 35 8 74t18 74l49 -13q-7 -26 -14.5 -58t-7.5 -63q0 -88 78.5 -123.5t254.5 -35.5q64 0 129.5 4t123.5 11.5t100 17.5q-21 14 -43 34.5t-37 49.5t-15 67q0 52 23.5 95t61 68.5t78.5 25.5q45 0 80 -27t55 -68.5t20 -85.5
q0 -53 -26.5 -91.5t-70.5 -66.5q37 -7 84.5 -12.5t104.5 -5.5q14 0 20 -7.5t6 -17.5q0 -11 -9 -19.5t-23 -8.5q-66 0 -130.5 11t-116.5 28q-4 -1 -8 -3q-41 -17 -111 -29t-154.5 -17.5t-167.5 -5.5zM736 216q0 -45 32 -78t71 -52q49 22 80 54.5t31 80.5q0 25 -12.5 55.5
t-36 53t-55.5 22.5q-28 0 -53 -19.5t-41 -50.5t-16 -66z" />
    <glyph glyph-name="fehDotbelow-ar.init" unicode="&#x6a2;" horiz-adv-x="439" 
d="M0 -5l7 53q48 0 96 2t88 8t65 19q27 12 46.5 33.5t28.5 61.5q-23 -9 -49 -12.5t-52 -3.5q-69 0 -111.5 30.5t-42.5 93.5q0 36 12 73t33.5 68.5t50.5 50.5t64 19q50 0 84 -35t51.5 -91t17.5 -120q0 -67 -20.5 -118t-73.5 -85q-41 -26 -115 -36.5t-180 -10.5zM127 293
q0 -49 29 -67t80 -18q56 0 101 16q1 13 1 27q0 46 -12.5 89t-37 70.5t-58.5 27.5q-26 0 -50 -22.5t-38.5 -56t-14.5 -66.5zM205 -182q-16 0 -27 11.5t-11 26.5q0 16 11 27t27 11t27 -11t11 -27q0 -15 -11 -26.5t-27 -11.5z" />
    <glyph glyph-name="fehDotbelow-ar.medi" unicode="&#x6a2;" horiz-adv-x="492" 
d="M0 -5l7 53q43 0 88.5 4.5t84.5 14.5q-21 13 -43 33.5t-37 50t-15 70.5q0 51 23.5 93t60.5 66.5t79 24.5q45 0 80 -26t55 -67t20 -86q0 -55 -27 -93.5t-70 -65.5q39 -7 88.5 -13t103.5 -6q14 0 20 -7.5t6 -17.5q0 -11 -9 -19.5t-23 -8.5q-41 0 -87 5.5t-89 14.5t-76 20
q-4 -1 -8 -3q-50 -20 -111 -28.5t-121 -8.5zM137 220q0 -51 30.5 -83t69.5 -51q49 22 81.5 54.5t32.5 83.5q0 26 -13 56t-36.5 51t-55.5 21q-27 0 -52 -18.5t-41 -48.5t-16 -65zM233 -182q-16 0 -27 11.5t-11 26.5q0 16 11 27t27 11t27 -11t11 -27q0 -15 -11 -26.5
t-27 -11.5z" />
    <glyph glyph-name="fehDotbelow-ar.fina" unicode="&#x6a2;" horiz-adv-x="1088" 
d="M400 -21q-176 0 -268 46t-92 152q0 35 8 74t18 74l49 -13q-7 -26 -14.5 -58t-7.5 -63q0 -88 78.5 -123.5t254.5 -35.5q64 0 129.5 4t123.5 11.5t100 17.5q-21 14 -43 34.5t-37 49.5t-15 67q0 52 23.5 95t61 68.5t78.5 25.5q45 0 80 -27t55 -68.5t20 -85.5
q0 -53 -26.5 -91.5t-70.5 -66.5q37 -7 84.5 -12.5t104.5 -5.5q14 0 20 -7.5t6 -17.5q0 -11 -9 -19.5t-23 -8.5q-66 0 -130.5 11t-116.5 28q-4 -1 -8 -3q-41 -17 -111 -29t-154.5 -17.5t-167.5 -5.5zM736 216q0 -45 32 -78t71 -52q49 22 80 54.5t31 80.5q0 25 -12.5 55.5
t-36 53t-55.5 22.5q-28 0 -53 -19.5t-41 -50.5t-16 -66zM455 -202q-16 0 -27 11.5t-11 26.5q0 16 11 27t27 11t27 -11t11 -27q0 -15 -11 -26.5t-27 -11.5z" />
    <glyph glyph-name="fehDotaboveDotbelow-ar.init" unicode="&#x6a3;" horiz-adv-x="439" 
d="M0 -5l7 53q48 0 96 2t88 8t65 19q27 12 46.5 33.5t28.5 61.5q-23 -9 -49 -12.5t-52 -3.5q-69 0 -111.5 30.5t-42.5 93.5q0 36 12 73t33.5 68.5t50.5 50.5t64 19q50 0 84 -35t51.5 -91t17.5 -120q0 -67 -20.5 -118t-73.5 -85q-41 -26 -115 -36.5t-180 -10.5zM127 293
q0 -49 29 -67t80 -18q56 0 101 16q1 13 1 27q0 46 -12.5 89t-37 70.5t-58.5 27.5q-26 0 -50 -22.5t-38.5 -56t-14.5 -66.5zM224 610q-16 0 -27 11t-11 27q0 15 11 26.5t27 11.5t27 -11.5t11 -26.5q0 -16 -11 -27t-27 -11zM205 -182q-16 0 -27 11.5t-11 26.5q0 16 11 27
t27 11t27 -11t11 -27q0 -15 -11 -26.5t-27 -11.5z" />
    <glyph glyph-name="fehDotaboveDotbelow-ar.medi" unicode="&#x6a3;" horiz-adv-x="492" 
d="M0 -5l7 53q43 0 88.5 4.5t84.5 14.5q-21 13 -43 33.5t-37 50t-15 70.5q0 51 23.5 93t60.5 66.5t79 24.5q45 0 80 -26t55 -67t20 -86q0 -55 -27 -93.5t-70 -65.5q39 -7 88.5 -13t103.5 -6q14 0 20 -7.5t6 -17.5q0 -11 -9 -19.5t-23 -8.5q-41 0 -87 5.5t-89 14.5t-76 20
q-4 -1 -8 -3q-50 -20 -111 -28.5t-121 -8.5zM137 220q0 -51 30.5 -83t69.5 -51q49 22 81.5 54.5t32.5 83.5q0 26 -13 56t-36.5 51t-55.5 21q-27 0 -52 -18.5t-41 -48.5t-16 -65zM234 524q-16 0 -27 11t-11 27q0 15 11 26.5t27 11.5t27 -11.5t11 -26.5q0 -16 -11 -27t-27 -11
zM233 -182q-16 0 -27 11.5t-11 26.5q0 16 11 27t27 11t27 -11t11 -27q0 -15 -11 -26.5t-27 -11.5z" />
    <glyph glyph-name="fehDotaboveDotbelow-ar.fina" unicode="&#x6a3;" horiz-adv-x="1088" 
d="M400 -21q-176 0 -268 46t-92 152q0 35 8 74t18 74l49 -13q-7 -26 -14.5 -58t-7.5 -63q0 -88 78.5 -123.5t254.5 -35.5q64 0 129.5 4t123.5 11.5t100 17.5q-21 14 -43 34.5t-37 49.5t-15 67q0 52 23.5 95t61 68.5t78.5 25.5q45 0 80 -27t55 -68.5t20 -85.5
q0 -53 -26.5 -91.5t-70.5 -66.5q37 -7 84.5 -12.5t104.5 -5.5q14 0 20 -7.5t6 -17.5q0 -11 -9 -19.5t-23 -8.5q-66 0 -130.5 11t-116.5 28q-4 -1 -8 -3q-41 -17 -111 -29t-154.5 -17.5t-167.5 -5.5zM736 216q0 -45 32 -78t71 -52q49 22 80 54.5t31 80.5q0 25 -12.5 55.5
t-36 53t-55.5 22.5q-28 0 -53 -19.5t-41 -50.5t-16 -66zM840 524q-16 0 -27 11t-11 27q0 15 11 26.5t27 11.5t27 -11.5t11 -26.5q0 -16 -11 -27t-27 -11zM455 -202q-16 0 -27 11.5t-11 26.5q0 16 11 27t27 11t27 -11t11 -27q0 -15 -11 -26.5t-27 -11.5z" />
    <glyph glyph-name="fehThreedotsbelow-ar.init" unicode="&#x6a5;" horiz-adv-x="439" 
d="M0 -5l7 53q48 0 96 2t88 8t65 19q27 12 46.5 33.5t28.5 61.5q-23 -9 -49 -12.5t-52 -3.5q-69 0 -111.5 30.5t-42.5 93.5q0 36 12 73t33.5 68.5t50.5 50.5t64 19q50 0 84 -35t51.5 -91t17.5 -120q0 -67 -20.5 -118t-73.5 -85q-41 -26 -115 -36.5t-180 -10.5zM127 293
q0 -49 29 -67t80 -18q56 0 101 16q1 13 1 27q0 46 -12.5 89t-37 70.5t-58.5 27.5q-26 0 -50 -22.5t-38.5 -56t-14.5 -66.5zM148 -140q-15 0 -25.5 10t-10.5 25t10.5 25.5t25.5 10.5q14 0 25 -10.5t11 -25.5t-11 -25t-25 -10zM262 -140q-15 0 -25.5 10t-10.5 25t10.5 25.5
t25.5 10.5q14 0 24.5 -10.5t10.5 -25.5t-10.5 -25t-24.5 -10zM205 -232q-15 0 -25.5 10.5t-10.5 24.5q0 15 10.5 26t25.5 11q14 0 24.5 -11t10.5 -26q0 -14 -10.5 -24.5t-24.5 -10.5z" />
    <glyph glyph-name="fehThreedotsbelow-ar.medi" unicode="&#x6a5;" horiz-adv-x="492" 
d="M0 -5l7 53q43 0 88.5 4.5t84.5 14.5q-21 13 -43 33.5t-37 50t-15 70.5q0 51 23.5 93t60.5 66.5t79 24.5q45 0 80 -26t55 -67t20 -86q0 -55 -27 -93.5t-70 -65.5q39 -7 88.5 -13t103.5 -6q14 0 20 -7.5t6 -17.5q0 -11 -9 -19.5t-23 -8.5q-41 0 -87 5.5t-89 14.5t-76 20
q-4 -1 -8 -3q-50 -20 -111 -28.5t-121 -8.5zM137 220q0 -51 30.5 -83t69.5 -51q49 22 81.5 54.5t32.5 83.5q0 26 -13 56t-36.5 51t-55.5 21q-27 0 -52 -18.5t-41 -48.5t-16 -65zM176 -140q-15 0 -25.5 10t-10.5 25t10.5 25.5t25.5 10.5q14 0 25 -10.5t11 -25.5t-11 -25
t-25 -10zM290 -140q-15 0 -25.5 10t-10.5 25t10.5 25.5t25.5 10.5q14 0 24.5 -10.5t10.5 -25.5t-10.5 -25t-24.5 -10zM233 -232q-15 0 -25.5 10.5t-10.5 24.5q0 15 10.5 26t25.5 11q14 0 24.5 -11t10.5 -26q0 -14 -10.5 -24.5t-24.5 -10.5z" />
    <glyph glyph-name="fehThreedotsbelow-ar.fina" unicode="&#x6a5;" horiz-adv-x="1088" 
d="M400 -21q-176 0 -268 46t-92 152q0 35 8 74t18 74l49 -13q-7 -26 -14.5 -58t-7.5 -63q0 -88 78.5 -123.5t254.5 -35.5q64 0 129.5 4t123.5 11.5t100 17.5q-21 14 -43 34.5t-37 49.5t-15 67q0 52 23.5 95t61 68.5t78.5 25.5q45 0 80 -27t55 -68.5t20 -85.5
q0 -53 -26.5 -91.5t-70.5 -66.5q37 -7 84.5 -12.5t104.5 -5.5q14 0 20 -7.5t6 -17.5q0 -11 -9 -19.5t-23 -8.5q-66 0 -130.5 11t-116.5 28q-4 -1 -8 -3q-41 -17 -111 -29t-154.5 -17.5t-167.5 -5.5zM736 216q0 -45 32 -78t71 -52q49 22 80 54.5t31 80.5q0 25 -12.5 55.5
t-36 53t-55.5 22.5q-28 0 -53 -19.5t-41 -50.5t-16 -66zM398 -160q-15 0 -25.5 10t-10.5 25t10.5 25.5t25.5 10.5q14 0 25 -10.5t11 -25.5t-11 -25t-25 -10zM512 -160q-15 0 -25.5 10t-10.5 25t10.5 25.5t25.5 10.5q14 0 24.5 -10.5t10.5 -25.5t-10.5 -25t-24.5 -10z
M455 -252q-15 0 -25.5 10.5t-10.5 24.5q0 15 10.5 26t25.5 11q14 0 24.5 -11t10.5 -26q0 -14 -10.5 -24.5t-24.5 -10.5z" />
    <glyph glyph-name="qafDotabove-ar.init" unicode="&#x6a7;" horiz-adv-x="439" 
d="M0 -5l7 53q48 0 96 2t88 8t65 19q27 12 46.5 33.5t28.5 61.5q-23 -9 -49 -12.5t-52 -3.5q-69 0 -111.5 30.5t-42.5 93.5q0 36 12 73t33.5 68.5t50.5 50.5t64 19q50 0 84 -35t51.5 -91t17.5 -120q0 -67 -20.5 -118t-73.5 -85q-41 -26 -115 -36.5t-180 -10.5zM127 293
q0 -49 29 -67t80 -18q56 0 101 16q1 13 1 27q0 46 -12.5 89t-37 70.5t-58.5 27.5q-26 0 -50 -22.5t-38.5 -56t-14.5 -66.5zM224 610q-16 0 -27 11t-11 27q0 15 11 26.5t27 11.5t27 -11.5t11 -26.5q0 -16 -11 -27t-27 -11z" />
    <glyph glyph-name="qafDotabove-ar.medi" unicode="&#x6a7;" horiz-adv-x="492" 
d="M0 -5l7 53q43 0 88.5 4.5t84.5 14.5q-21 13 -43 33.5t-37 50t-15 70.5q0 51 23.5 93t60.5 66.5t79 24.5q45 0 80 -26t55 -67t20 -86q0 -55 -27 -93.5t-70 -65.5q39 -7 88.5 -13t103.5 -6q14 0 20 -7.5t6 -17.5q0 -11 -9 -19.5t-23 -8.5q-41 0 -87 5.5t-89 14.5t-76 20
q-4 -1 -8 -3q-50 -20 -111 -28.5t-121 -8.5zM137 220q0 -51 30.5 -83t69.5 -51q49 22 81.5 54.5t32.5 83.5q0 26 -13 56t-36.5 51t-55.5 21q-27 0 -52 -18.5t-41 -48.5t-16 -65zM234 524q-16 0 -27 11t-11 27q0 15 11 26.5t27 11.5t27 -11.5t11 -26.5q0 -16 -11 -27t-27 -11
z" />
    <glyph glyph-name="qafDotabove-ar.fina" unicode="&#x6a7;" horiz-adv-x="808" 
d="M342 -271q-90 0 -158 24t-106 76t-38 135q0 19 8.5 71.5t48.5 124.5l47 -22q-21 -40 -35 -81t-14 -84q0 -72 33 -113.5t92.5 -59t139.5 -17.5q44 0 91 9t90 29.5t74.5 55t43.5 85.5q4 14 7 33h-87q-43 0 -81.5 10t-62.5 36t-25 73q0 35 12 71.5t34.5 67.5t52 50t63.5 19
q67 0 110.5 -69.5t43.5 -192.5v-12h88q14 0 20 -7.5t6 -17.5q0 -11 -9 -19.5t-23 -8.5h-89q-7 -38 -19 -70q-21 -59 -60.5 -97t-89.5 -59.5t-104 -30.5t-104 -9zM600 48h71q1 11 1 20q0 60 -14 105t-38 70.5t-54 25.5q-27 0 -51 -22.5t-38.5 -55.5t-14.5 -67q0 -33 18 -49.5
t49 -21.5t71 -5zM567 440q-16 0 -27 11t-11 27q0 15 11 26.5t27 11.5t27 -11.5t11 -26.5q0 -16 -11 -27t-27 -11z" />
    <glyph glyph-name="qafThreedotsabove-ar.init" unicode="&#x6a8;" horiz-adv-x="439" 
d="M0 -5l7 53q48 0 96 2t88 8t65 19q27 12 46.5 33.5t28.5 61.5q-23 -9 -49 -12.5t-52 -3.5q-69 0 -111.5 30.5t-42.5 93.5q0 36 12 73t33.5 68.5t50.5 50.5t64 19q50 0 84 -35t51.5 -91t17.5 -120q0 -67 -20.5 -118t-73.5 -85q-41 -26 -115 -36.5t-180 -10.5zM127 293
q0 -49 29 -67t80 -18q56 0 101 16q1 13 1 27q0 46 -12.5 89t-37 70.5t-58.5 27.5q-26 0 -50 -22.5t-38.5 -56t-14.5 -66.5zM226 706q-15 0 -26.5 11.5t-11.5 26.5q0 16 11.5 27t26.5 11q16 0 27 -11t11 -27q0 -15 -11 -26.5t-27 -11.5zM166 610q-15 0 -26 11t-11 27
q0 15 11 26.5t26 11.5q16 0 27 -11.5t11 -26.5q0 -16 -11 -27t-27 -11zM287 610q-16 0 -27 11t-11 27q0 15 11 26.5t27 11.5t27 -11.5t11 -26.5q0 -16 -11 -27t-27 -11z" />
    <glyph glyph-name="qafThreedotsabove-ar.medi" unicode="&#x6a8;" horiz-adv-x="492" 
d="M0 -5l7 53q43 0 88.5 4.5t84.5 14.5q-21 13 -43 33.5t-37 50t-15 70.5q0 51 23.5 93t60.5 66.5t79 24.5q45 0 80 -26t55 -67t20 -86q0 -55 -27 -93.5t-70 -65.5q39 -7 88.5 -13t103.5 -6q14 0 20 -7.5t6 -17.5q0 -11 -9 -19.5t-23 -8.5q-41 0 -87 5.5t-89 14.5t-76 20
q-4 -1 -8 -3q-50 -20 -111 -28.5t-121 -8.5zM137 220q0 -51 30.5 -83t69.5 -51q49 22 81.5 54.5t32.5 83.5q0 26 -13 56t-36.5 51t-55.5 21q-27 0 -52 -18.5t-41 -48.5t-16 -65zM236 620q-15 0 -26.5 11.5t-11.5 26.5q0 16 11.5 27t26.5 11q16 0 27 -11t11 -27
q0 -15 -11 -26.5t-27 -11.5zM176 524q-15 0 -26 11t-11 27q0 15 11 26.5t26 11.5q16 0 27 -11.5t11 -26.5q0 -16 -11 -27t-27 -11zM297 524q-16 0 -27 11t-11 27q0 15 11 26.5t27 11.5t27 -11.5t11 -26.5q0 -16 -11 -27t-27 -11z" />
    <glyph glyph-name="qafThreedotsabove-ar.fina" unicode="&#x6a8;" horiz-adv-x="808" 
d="M342 -271q-90 0 -158 24t-106 76t-38 135q0 19 8.5 71.5t48.5 124.5l47 -22q-21 -40 -35 -81t-14 -84q0 -72 33 -113.5t92.5 -59t139.5 -17.5q44 0 91 9t90 29.5t74.5 55t43.5 85.5q4 14 7 33h-87q-43 0 -81.5 10t-62.5 36t-25 73q0 35 12 71.5t34.5 67.5t52 50t63.5 19
q67 0 110.5 -69.5t43.5 -192.5v-12h88q14 0 20 -7.5t6 -17.5q0 -11 -9 -19.5t-23 -8.5h-89q-7 -38 -19 -70q-21 -59 -60.5 -97t-89.5 -59.5t-104 -30.5t-104 -9zM600 48h71q1 11 1 20q0 60 -14 105t-38 70.5t-54 25.5q-27 0 -51 -22.5t-38.5 -55.5t-14.5 -67q0 -33 18 -49.5
t49 -21.5t71 -5zM568 536q-15 0 -26.5 11.5t-11.5 26.5q0 16 11.5 27t26.5 11q16 0 27 -11t11 -27q0 -15 -11 -26.5t-27 -11.5zM508 440q-15 0 -26 11t-11 27q0 15 11 26.5t26 11.5q16 0 27 -11.5t11 -26.5q0 -16 -11 -27t-27 -11zM629 440q-16 0 -27 11t-11 27
q0 15 11 26.5t27 11.5t27 -11.5t11 -26.5q0 -16 -11 -27t-27 -11z" />
    <glyph glyph-name="kafswash-ar.init" unicode="&#x6aa;" horiz-adv-x="745" 
d="M0 -5l7 53h264q178 0 272 16t94 68q0 15 -9 30.5t-33.5 29.5t-71.5 25.5t-123 18.5q-107 9 -171.5 19.5t-93.5 30t-29 55.5q0 39 29.5 73t81 63.5t119 53t143.5 40.5l11 -47q-165 -38 -248 -88t-83 -88q0 -19 23 -29.5t76.5 -17.5t142.5 -17q147 -14 215.5 -48t68.5 -98
q0 -62 -51.5 -92.5t-144.5 -40.5t-217 -10h-272z" />
    <glyph glyph-name="kafswash-ar.medi" unicode="&#x6aa;" horiz-adv-x="825" 
d="M0 -5l7 53h264q178 0 272 16t94 68q0 15 -9 30.5t-33.5 29.5t-71.5 25.5t-123 18.5q-107 9 -171.5 19.5t-93.5 30t-29 55.5q0 39 29.5 73t81 63.5t119 53t143.5 40.5l11 -47q-165 -38 -248 -88t-83 -88q0 -19 23 -29.5t76.5 -17.5t142.5 -17q147 -14 215.5 -48t68.5 -98
q0 -62 -51.5 -92.5t-144.5 -40.5t-217 -10h-272zM825 -5q-25 0 -63 4.5t-77.5 17.5t-68.5 37l51 28q43 -21 87.5 -27.5t77.5 -6.5q14 0 19.5 -7.5t5.5 -17.5q0 -11 -9 -19.5t-23 -8.5z" />
    <glyph glyph-name="kafswash-ar.fina" unicode="&#x6aa;" horiz-adv-x="1091" 
d="M1091 -5q-25 0 -63 4.5t-77.5 17.5t-68.5 37l51 28q43 -21 87.5 -27.5t77.5 -6.5q14 0 19.5 -7.5t5.5 -17.5q0 -11 -9 -19.5t-23 -8.5zM540 -15q-44 0 -105 1t-128 3t-130.5 6t-111.5 9l4 51q49 -4 110 -7.5t125.5 -5.5t125.5 -3.5t109 -1.5q178 0 272 22.5t94 72.5
q0 15 -9 30.5t-33.5 29.5t-71.5 25.5t-123 18.5q-107 9 -171.5 19.5t-93.5 30t-29 55.5q0 39 29.5 73t81 63.5t119 53t143.5 40.5l11 -47q-165 -38 -248 -88t-83 -88q0 -19 23 -29.5t76.5 -17.5t142.5 -17q147 -14 215.5 -48t68.5 -98q0 -60 -51.5 -93.5t-144.5 -46.5
t-217 -13z" />
    <glyph glyph-name="kafRing-ar.init" unicode="&#x6ab;" horiz-adv-x="394" 
d="M0 -5l7 53h82q73 0 113.5 11.5t57 34t16.5 54.5q0 34 -25 78t-77 96q-68 70 -109 100t-41 42q0 36 18 53q46 41 131 87.5t203 103.5l22 -48q-123 -57 -198 -99t-125 -80q67 -58 124 -114t91 -111t34 -111q0 -43 -22 -77t-75 -53.5t-145 -19.5h-82zM315 482
q-34 0 -58.5 25t-24.5 59t24.5 58t58.5 24t59 -24t25 -58t-25 -59t-59 -25zM315 518q20 0 34 14t14 34t-14 33.5t-34 13.5t-34 -13.5t-14 -33.5t14 -34t34 -14z" />
    <glyph glyph-name="kafRing-ar.medi" unicode="&#x6ab;" horiz-adv-x="480" 
d="M0 -5l7 53h77q75 0 116.5 11.5t58 33t16.5 51.5q0 26 -18 58t-46.5 65.5t-61 66t-61 59.5t-46.5 46t-18 26q0 33 18 53q46 40 134.5 89t199.5 101l22 -48q-98 -46 -183.5 -92t-142.5 -88q52 -49 104 -100.5t94 -105.5t66 -110q24 -57 64 -86.5t86 -29.5q14 0 20 -7.5
t6 -17.5q0 -11 -9 -19.5t-23 -8.5q-43 0 -88.5 22.5t-76.5 79.5q-23 -59 -83.5 -80.5t-153.5 -21.5h-78zM318 484q-34 0 -58.5 25t-24.5 59t24.5 58t58.5 24t59 -24t25 -58t-25 -59t-59 -25zM318 520q20 0 34 14t14 34t-14 33.5t-34 13.5t-34 -13.5t-14 -33.5t14 -34t34 -14
z" />
    <glyph glyph-name="kafRing-ar.fina" unicode="&#x6ab;" horiz-adv-x="970" 
d="M400 -21q-176 0 -268 46t-92 152q0 35 8 74t18 74l49 -13q-7 -26 -14.5 -58t-7.5 -63q0 -88 78.5 -123.5t254.5 -35.5q162 0 250.5 30t88.5 82q0 30 -18 63.5t-46.5 67t-61 65t-61 57t-46.5 43.5t-18 25q0 33 18 53q28 25 79.5 56.5t117 65.5t137.5 68l22 -48
q-61 -28 -121.5 -59t-114 -62t-90.5 -59q52 -47 102 -93.5t92 -100t70 -122.5q24 -57 64 -86.5t86 -29.5q14 0 20 -7.5t6 -17.5q0 -11 -9 -19.5t-23 -8.5q-44 0 -89 23.5t-76 81.5q-26 -60 -121.5 -90.5t-283.5 -30.5zM810 485q-34 0 -58.5 25t-24.5 59t24.5 58t58.5 24
t59 -24t25 -58t-25 -59t-59 -25zM810 521q20 0 34 14t14 34t-14 33.5t-34 13.5t-34 -13.5t-14 -33.5t14 -34t34 -14z" />
    <glyph glyph-name="kafDotabove-ar.init" unicode="&#x6ac;" horiz-adv-x="394" 
d="M0 -5l7 53h82q73 0 113.5 11.5t57 34t16.5 54.5q0 34 -25 78t-77 96q-68 70 -109 100t-41 42q0 36 18 53q46 41 131 87.5t203 103.5l22 -48q-123 -57 -198 -99t-125 -80q67 -58 124 -114t91 -111t34 -111q0 -43 -22 -77t-75 -53.5t-145 -19.5h-82zM177 742q-16 0 -27 11
t-11 27q0 15 11 26.5t27 11.5t27 -11.5t11 -26.5q0 -16 -11 -27t-27 -11z" />
    <glyph glyph-name="kafDotabove-ar.medi" unicode="&#x6ac;" horiz-adv-x="480" 
d="M0 -5l7 53h77q75 0 116.5 11.5t58 33t16.5 51.5q0 26 -18 58t-46.5 65.5t-61 66t-61 59.5t-46.5 46t-18 26q0 33 18 53q46 40 134.5 89t199.5 101l22 -48q-98 -46 -183.5 -92t-142.5 -88q52 -49 104 -100.5t94 -105.5t66 -110q24 -57 64 -86.5t86 -29.5q14 0 20 -7.5
t6 -17.5q0 -11 -9 -19.5t-23 -8.5q-43 0 -88.5 22.5t-76.5 79.5q-23 -59 -83.5 -80.5t-153.5 -21.5h-78zM151 742q-16 0 -27 11t-11 27q0 15 11 26.5t27 11.5t27 -11.5t11 -26.5q0 -16 -11 -27t-27 -11z" />
    <glyph glyph-name="kafDotabove-ar.fina" unicode="&#x6ac;" horiz-adv-x="893" 
d="M400 -21q-176 0 -268 46t-92 152q0 35 8 74t18 74l49 -13q-7 -26 -14.5 -58t-7.5 -63q0 -88 78.5 -123.5t254.5 -35.5q118 0 187 14.5t98.5 48t27.5 88.5l-19 531h52l20 -524q3 -77 25.5 -109.5t82.5 -32.5q14 0 19.5 -7.5t5.5 -17.5q0 -11 -9 -19.5t-23 -8.5
q-52 0 -83.5 19.5t-41.5 62.5q-38 -57 -131.5 -77.5t-236.5 -20.5zM364 204l-12 42q75 20 101.5 35t26.5 27q0 14 -14 25t-32.5 22.5t-32.5 26.5t-14 36q0 16 10 35t36.5 41t77.5 46l21 -38q-46 -21 -73.5 -43t-27.5 -39q0 -13 14 -24.5t32.5 -24t32.5 -28t14 -37.5
q0 -18 -13 -34.5t-48 -33.5t-99 -34zM457 651q-16 0 -27 11t-11 27q0 15 11 26.5t27 11.5t27 -11.5t11 -26.5q0 -16 -11 -27t-27 -11z" />
    <glyph glyph-name="kafThreedotsbelow-ar.init" unicode="&#x6ae;" horiz-adv-x="394" 
d="M0 -5l7 53h82q73 0 113.5 11.5t57 34t16.5 54.5q0 34 -25 78t-77 96q-68 70 -109 100t-41 42q0 36 18 53q46 41 131 87.5t203 103.5l22 -48q-123 -57 -198 -99t-125 -80q67 -58 124 -114t91 -111t34 -111q0 -43 -22 -77t-75 -53.5t-145 -19.5h-82zM103 -135
q-15 0 -25.5 10t-10.5 25t10.5 25.5t25.5 10.5q14 0 25 -10.5t11 -25.5t-11 -25t-25 -10zM217 -135q-15 0 -25.5 10t-10.5 25t10.5 25.5t25.5 10.5q14 0 24.5 -10.5t10.5 -25.5t-10.5 -25t-24.5 -10zM160 -227q-15 0 -25.5 10.5t-10.5 24.5q0 15 10.5 26t25.5 11
q14 0 24.5 -11t10.5 -26q0 -14 -10.5 -24.5t-24.5 -10.5z" />
    <glyph glyph-name="kafThreedotsbelow-ar.medi" unicode="&#x6ae;" horiz-adv-x="480" 
d="M0 -5l7 53h77q75 0 116.5 11.5t58 33t16.5 51.5q0 26 -18 58t-46.5 65.5t-61 66t-61 59.5t-46.5 46t-18 26q0 33 18 53q46 40 134.5 89t199.5 101l22 -48q-98 -46 -183.5 -92t-142.5 -88q52 -49 104 -100.5t94 -105.5t66 -110q24 -57 64 -86.5t86 -29.5q14 0 20 -7.5
t6 -17.5q0 -11 -9 -19.5t-23 -8.5q-43 0 -88.5 22.5t-76.5 79.5q-23 -59 -83.5 -80.5t-153.5 -21.5h-78zM103 -135q-15 0 -25.5 10t-10.5 25t10.5 25.5t25.5 10.5q14 0 25 -10.5t11 -25.5t-11 -25t-25 -10zM217 -135q-15 0 -25.5 10t-10.5 25t10.5 25.5t25.5 10.5
q14 0 24.5 -10.5t10.5 -25.5t-10.5 -25t-24.5 -10zM160 -227q-15 0 -25.5 10.5t-10.5 24.5q0 15 10.5 26t25.5 11q14 0 24.5 -11t10.5 -26q0 -14 -10.5 -24.5t-24.5 -10.5z" />
    <glyph glyph-name="kafThreedotsbelow-ar.fina" unicode="&#x6ae;" horiz-adv-x="893" 
d="M400 -21q-176 0 -268 46t-92 152q0 35 8 74t18 74l49 -13q-7 -26 -14.5 -58t-7.5 -63q0 -88 78.5 -123.5t254.5 -35.5q118 0 187 14.5t98.5 48t27.5 88.5l-19 531h52l20 -524q3 -77 25.5 -109.5t82.5 -32.5q14 0 19.5 -7.5t5.5 -17.5q0 -11 -9 -19.5t-23 -8.5
q-52 0 -83.5 19.5t-41.5 62.5q-38 -57 -131.5 -77.5t-236.5 -20.5zM364 204l-12 42q75 20 101.5 35t26.5 27q0 14 -14 25t-32.5 22.5t-32.5 26.5t-14 36q0 16 10 35t36.5 41t77.5 46l21 -38q-46 -21 -73.5 -43t-27.5 -39q0 -13 14 -24.5t32.5 -24t32.5 -28t14 -37.5
q0 -18 -13 -34.5t-48 -33.5t-99 -34zM366 -156q-15 0 -25.5 10t-10.5 25t10.5 25.5t25.5 10.5q14 0 25 -10.5t11 -25.5t-11 -25t-25 -10zM480 -156q-15 0 -25.5 10t-10.5 25t10.5 25.5t25.5 10.5q14 0 24.5 -10.5t10.5 -25.5t-10.5 -25t-24.5 -10zM423 -248
q-15 0 -25.5 10.5t-10.5 24.5q0 15 10.5 26t25.5 11q14 0 24.5 -11t10.5 -26q0 -14 -10.5 -24.5t-24.5 -10.5z" />
    <glyph glyph-name="gafRing-ar.init" unicode="&#x6b0;" horiz-adv-x="394" 
d="M0 -5l7 53h82q73 0 113.5 11.5t57 34t16.5 54.5q0 34 -25 78t-77 96q-68 70 -109 100t-41 42q0 36 18 53q46 41 131 87.5t203 103.5l22 -48q-123 -57 -198 -99t-125 -80q67 -58 124 -114t91 -111t34 -111q0 -43 -22 -77t-75 -53.5t-145 -19.5h-82zM-1 570l-24 38
q55 36 141.5 86t207.5 112l18 -40q-120 -63 -202.5 -110.5t-140.5 -85.5zM318 484q-34 0 -58.5 25t-24.5 59t24.5 58t58.5 24t59 -24t25 -58t-25 -59t-59 -25zM318 520q20 0 34 14t14 34t-14 33.5t-34 13.5t-34 -13.5t-14 -33.5t14 -34t34 -14z" />
    <glyph glyph-name="gafRing-ar.medi" unicode="&#x6b0;" horiz-adv-x="480" 
d="M0 -5l7 53h77q75 0 116.5 11.5t58 33t16.5 51.5q0 26 -18 58t-46.5 65.5t-61 66t-61 59.5t-46.5 46t-18 26q0 33 18 53q46 40 134.5 89t199.5 101l22 -48q-98 -46 -183.5 -92t-142.5 -88q52 -49 104 -100.5t94 -105.5t66 -110q24 -57 64 -86.5t86 -29.5q14 0 20 -7.5
t6 -17.5q0 -11 -9 -19.5t-23 -8.5q-43 0 -88.5 22.5t-76.5 79.5q-23 -59 -83.5 -80.5t-153.5 -21.5h-78zM0 570l-24 38q55 36 141.5 86t207.5 112l18 -40q-120 -63 -202.5 -110.5t-140.5 -85.5zM316 484q-34 0 -58.5 25t-24.5 59t24.5 58t58.5 24t59 -24t25 -58t-25 -59
t-59 -25zM316 520q20 0 34 14t14 34t-14 33.5t-34 13.5t-34 -13.5t-14 -33.5t14 -34t34 -14z" />
    <glyph glyph-name="gafRing-ar.fina" unicode="&#x6b0;" horiz-adv-x="970" 
d="M400 -21q-176 0 -268 46t-92 152q0 35 8 74t18 74l49 -13q-7 -26 -14.5 -58t-7.5 -63q0 -88 78.5 -123.5t254.5 -35.5q162 0 250.5 30t88.5 82q0 30 -18 63.5t-46.5 67t-61 65t-61 57t-46.5 43.5t-18 25q0 33 18 53q28 25 79.5 56.5t117 65.5t137.5 68l22 -48
q-61 -28 -121.5 -59t-114 -62t-90.5 -59q52 -47 102 -93.5t92 -100t70 -122.5q24 -57 64 -86.5t86 -29.5q14 0 20 -7.5t6 -17.5q0 -11 -9 -19.5t-23 -8.5q-44 0 -89 23.5t-76 81.5q-26 -60 -121.5 -90.5t-283.5 -30.5zM490 570l-24 38q55 36 141.5 86t207.5 112l18 -40
q-120 -63 -202.5 -110.5t-140.5 -85.5zM810 485q-34 0 -58.5 25t-24.5 59t24.5 58t58.5 24t59 -24t25 -58t-25 -59t-59 -25zM810 521q20 0 34 14t14 34t-14 33.5t-34 13.5t-34 -13.5t-14 -33.5t14 -34t34 -14z" />
    <glyph glyph-name="gafTwodotsbelow-ar.init" unicode="&#x6b2;" horiz-adv-x="394" 
d="M0 -5l7 53h82q73 0 113.5 11.5t57 34t16.5 54.5q0 34 -25 78t-77 96q-68 70 -109 100t-41 42q0 36 18 53q46 41 131 87.5t203 103.5l22 -48q-123 -57 -198 -99t-125 -80q67 -58 124 -114t91 -111t34 -111q0 -43 -22 -77t-75 -53.5t-145 -19.5h-82zM-1 570l-24 38
q55 36 141.5 86t207.5 112l18 -40q-120 -63 -202.5 -110.5t-140.5 -85.5zM228 -177q-16 0 -27 11t-11 26q0 16 11 27.5t27 11.5q15 0 26.5 -11.5t11.5 -27.5q0 -15 -11.5 -26t-26.5 -11zM107 -177q-16 0 -27 11t-11 26q0 16 11 27.5t27 11.5t26.5 -11.5t10.5 -27.5
q0 -15 -10.5 -26t-26.5 -11z" />
    <glyph glyph-name="gafTwodotsbelow-ar.medi" unicode="&#x6b2;" horiz-adv-x="480" 
d="M0 -5l7 53h77q75 0 116.5 11.5t58 33t16.5 51.5q0 26 -18 58t-46.5 65.5t-61 66t-61 59.5t-46.5 46t-18 26q0 33 18 53q46 40 134.5 89t199.5 101l22 -48q-98 -46 -183.5 -92t-142.5 -88q52 -49 104 -100.5t94 -105.5t66 -110q24 -57 64 -86.5t86 -29.5q14 0 20 -7.5
t6 -17.5q0 -11 -9 -19.5t-23 -8.5q-43 0 -88.5 22.5t-76.5 79.5q-23 -59 -83.5 -80.5t-153.5 -21.5h-78zM0 570l-24 38q55 36 141.5 86t207.5 112l18 -40q-120 -63 -202.5 -110.5t-140.5 -85.5zM228 -177q-16 0 -27 11t-11 26q0 16 11 27.5t27 11.5q15 0 26.5 -11.5
t11.5 -27.5q0 -15 -11.5 -26t-26.5 -11zM107 -177q-16 0 -27 11t-11 26q0 16 11 27.5t27 11.5t26.5 -11.5t10.5 -27.5q0 -15 -10.5 -26t-26.5 -11z" />
    <glyph glyph-name="gafTwodotsbelow-ar.fina" unicode="&#x6b2;" horiz-adv-x="970" 
d="M400 -21q-176 0 -268 46t-92 152q0 35 8 74t18 74l49 -13q-7 -26 -14.5 -58t-7.5 -63q0 -88 78.5 -123.5t254.5 -35.5q162 0 250.5 30t88.5 82q0 30 -18 63.5t-46.5 67t-61 65t-61 57t-46.5 43.5t-18 25q0 33 18 53q28 25 79.5 56.5t117 65.5t137.5 68l22 -48
q-61 -28 -121.5 -59t-114 -62t-90.5 -59q52 -47 102 -93.5t92 -100t70 -122.5q24 -57 64 -86.5t86 -29.5q14 0 20 -7.5t6 -17.5q0 -11 -9 -19.5t-23 -8.5q-44 0 -89 23.5t-76 81.5q-26 -60 -121.5 -90.5t-283.5 -30.5zM490 570l-24 38q55 36 141.5 86t207.5 112l18 -40
q-120 -63 -202.5 -110.5t-140.5 -85.5zM475 -198q-16 0 -27 11t-11 26q0 16 11 27.5t27 11.5q15 0 26.5 -11.5t11.5 -27.5q0 -15 -11.5 -26t-26.5 -11zM354 -198q-16 0 -27 11t-11 26q0 16 11 27.5t27 11.5t26.5 -11.5t10.5 -27.5q0 -15 -10.5 -26t-26.5 -11z" />
    <glyph glyph-name="gafThreedots-ar.init" unicode="&#x6b4;" horiz-adv-x="394" 
d="M0 -5l7 53h82q73 0 113.5 11.5t57 34t16.5 54.5q0 34 -25 78t-77 96q-68 70 -109 100t-41 42q0 36 18 53q46 41 131 87.5t203 103.5l22 -48q-123 -57 -198 -99t-125 -80q67 -58 124 -114t91 -111t34 -111q0 -43 -22 -77t-75 -53.5t-145 -19.5h-82zM-1 570l-24 38
q55 36 141.5 86t207.5 112l18 -40q-120 -63 -202.5 -110.5t-140.5 -85.5zM79 868q-16 0 -26.5 10.5t-10.5 25.5t10.5 25.5t26.5 10.5q14 0 24.5 -10.5t10.5 -25.5t-10.5 -25.5t-24.5 -10.5zM181 794q-16 0 -26.5 10.5t-10.5 25.5t10.5 25.5t26.5 10.5q14 0 24.5 -10.5
t10.5 -25.5t-10.5 -25.5t-24.5 -10.5zM68 742q-15 0 -25.5 11t-10.5 25q0 15 10.5 25.5t25.5 10.5t25.5 -10.5t10.5 -25.5q0 -14 -10.5 -25t-25.5 -11z" />
    <glyph glyph-name="gafThreedots-ar.medi" unicode="&#x6b4;" horiz-adv-x="480" 
d="M0 -5l7 53h77q75 0 116.5 11.5t58 33t16.5 51.5q0 26 -18 58t-46.5 65.5t-61 66t-61 59.5t-46.5 46t-18 26q0 33 18 53q46 40 134.5 89t199.5 101l22 -48q-98 -46 -183.5 -92t-142.5 -88q52 -49 104 -100.5t94 -105.5t66 -110q24 -57 64 -86.5t86 -29.5q14 0 20 -7.5
t6 -17.5q0 -11 -9 -19.5t-23 -8.5q-43 0 -88.5 22.5t-76.5 79.5q-23 -59 -83.5 -80.5t-153.5 -21.5h-78zM0 570l-24 38q55 36 141.5 86t207.5 112l18 -40q-120 -63 -202.5 -110.5t-140.5 -85.5zM76 868q-16 0 -26.5 10.5t-10.5 25.5t10.5 25.5t26.5 10.5q14 0 24.5 -10.5
t10.5 -25.5t-10.5 -25.5t-24.5 -10.5zM178 794q-16 0 -26.5 10.5t-10.5 25.5t10.5 25.5t26.5 10.5q14 0 24.5 -10.5t10.5 -25.5t-10.5 -25.5t-24.5 -10.5zM65 742q-15 0 -25.5 11t-10.5 25q0 15 10.5 25.5t25.5 10.5t25.5 -10.5t10.5 -25.5q0 -14 -10.5 -25t-25.5 -11z" />
    <glyph glyph-name="gafThreedots-ar.fina" unicode="&#x6b4;" horiz-adv-x="970" 
d="M400 -21q-176 0 -268 46t-92 152q0 35 8 74t18 74l49 -13q-7 -26 -14.5 -58t-7.5 -63q0 -88 78.5 -123.5t254.5 -35.5q162 0 250.5 30t88.5 82q0 30 -18 63.5t-46.5 67t-61 65t-61 57t-46.5 43.5t-18 25q0 33 18 53q28 25 79.5 56.5t117 65.5t137.5 68l22 -48
q-61 -28 -121.5 -59t-114 -62t-90.5 -59q52 -47 102 -93.5t92 -100t70 -122.5q24 -57 64 -86.5t86 -29.5q14 0 20 -7.5t6 -17.5q0 -11 -9 -19.5t-23 -8.5q-44 0 -89 23.5t-76 81.5q-26 -60 -121.5 -90.5t-283.5 -30.5zM490 570l-24 38q55 36 141.5 86t207.5 112l18 -40
q-120 -63 -202.5 -110.5t-140.5 -85.5zM558 869q-16 0 -26.5 10.5t-10.5 25.5t10.5 25.5t26.5 10.5q14 0 24.5 -10.5t10.5 -25.5t-10.5 -25.5t-24.5 -10.5zM660 795q-16 0 -26.5 10.5t-10.5 25.5t10.5 25.5t26.5 10.5q14 0 24.5 -10.5t10.5 -25.5t-10.5 -25.5t-24.5 -10.5z
M547 743q-15 0 -25.5 11t-10.5 25q0 15 10.5 25.5t25.5 10.5t25.5 -10.5t10.5 -25.5q0 -14 -10.5 -25t-25.5 -11z" />
    <glyph glyph-name="lamVabove-ar.init" unicode="&#x6b5;" horiz-adv-x="234" 
d="M0 -5l6 53q58 0 83 13t30 44t3 85l-18 524h52l20 -518q2 -69 -9.5 -113.5t-50 -66t-116.5 -21.5zM106 847q-9 21 -25 54.5t-33.5 67.5t-29.5 55l32 18q8 -12 22 -39t29 -57.5t26 -53.5q11 28 24.5 60t25.5 58.5t17 35.5l32 -14q-5 -10 -16 -33.5t-23.5 -51.5t-23 -54
t-16.5 -42z" />
    <glyph glyph-name="lamVabove-ar.medi" unicode="&#x6b5;" horiz-adv-x="287" 
d="M0 -5l6 53q60 0 85.5 16.5t30 51t2.5 89.5l-18 509h54l16 -507q2 -62 15 -96.5t38.5 -48.5t64.5 -14q14 0 19.5 -7.5t5.5 -17.5q0 -11 -9 -19.5t-23 -8.5q-54 0 -84 23t-42 55q-16 -37 -53 -57.5t-108 -20.5zM114 847q-9 21 -25 54.5t-33.5 67.5t-29.5 55l32 18
q8 -12 22 -39t29 -57.5t26 -53.5q11 28 24.5 60t25.5 58.5t17 35.5l32 -14q-5 -10 -16 -33.5t-23.5 -51.5t-23 -54t-16.5 -42z" />
    <glyph glyph-name="lamVabove-ar.fina" unicode="&#x6b5;" horiz-adv-x="730" 
d="M40 -12q0 38 10 81.5t37 104.5l47 -20q-40 -92 -40 -161q0 -55 28.5 -93.5t75 -58t100.5 -19.5q94 0 150.5 40.5t80.5 110t21 155.5l-20 586h54l17 -523q2 -71 40.5 -107t95.5 -36q13 0 19 -7.5t6 -17.5q0 -11 -9 -19.5t-23 -8.5q-46 0 -78.5 20.5t-49.5 49.5
q-5 -56 -23.5 -109t-54 -95t-92.5 -67t-138 -25q-68 0 -125.5 25.5t-93 74.5t-35.5 119zM289 590q-9 21 -25 54.5t-33.5 67.5t-29.5 55l32 18q8 -12 22 -39t29 -57.5t26 -53.5q11 28 24.5 60t25.5 58.5t17 35.5l32 -14q-5 -10 -16 -33.5t-23.5 -51.5t-23 -54t-16.5 -42z" />
    <glyph glyph-name="lamDotabove-ar.init" unicode="&#x6b6;" horiz-adv-x="234" 
d="M0 -5l6 53q58 0 83 13t30 44t3 85l-18 524h52l20 -518q2 -69 -9.5 -113.5t-50 -66t-116.5 -21.5zM125 833q-16 0 -27 11t-11 27q0 15 11 26.5t27 11.5t27 -11.5t11 -26.5q0 -16 -11 -27t-27 -11z" />
    <glyph glyph-name="lamDotabove-ar.medi" unicode="&#x6b6;" horiz-adv-x="287" 
d="M0 -5l6 53q60 0 85.5 16.5t30 51t2.5 89.5l-18 509h54l16 -507q2 -62 15 -96.5t38.5 -48.5t64.5 -14q14 0 19.5 -7.5t5.5 -17.5q0 -11 -9 -19.5t-23 -8.5q-54 0 -84 23t-42 55q-16 -37 -53 -57.5t-108 -20.5zM133 833q-16 0 -27 11t-11 27q0 15 11 26.5t27 11.5t27 -11.5
t11 -26.5q0 -16 -11 -27t-27 -11z" />
    <glyph glyph-name="lamDotabove-ar.fina" unicode="&#x6b6;" horiz-adv-x="730" 
d="M40 -12q0 38 10 81.5t37 104.5l47 -20q-40 -92 -40 -161q0 -55 28.5 -93.5t75 -58t100.5 -19.5q94 0 150.5 40.5t80.5 110t21 155.5l-20 586h54l17 -523q2 -71 40.5 -107t95.5 -36q13 0 19 -7.5t6 -17.5q0 -11 -9 -19.5t-23 -8.5q-46 0 -78.5 20.5t-49.5 49.5
q-5 -56 -23.5 -109t-54 -95t-92.5 -67t-138 -25q-68 0 -125.5 25.5t-93 74.5t-35.5 119zM309 576q-16 0 -27 11t-11 27q0 15 11 26.5t27 11.5t27 -11.5t11 -26.5q0 -16 -11 -27t-27 -11z" />
    <glyph glyph-name="lamThreedotsabove-ar.init" unicode="&#x6b7;" horiz-adv-x="234" 
d="M0 -5l6 53q58 0 83 13t30 44t3 85l-18 524h52l20 -518q2 -69 -9.5 -113.5t-50 -66t-116.5 -21.5zM126 929q-15 0 -26.5 11.5t-11.5 26.5q0 16 11.5 27t26.5 11q16 0 27 -11t11 -27q0 -15 -11 -26.5t-27 -11.5zM66 833q-15 0 -26 11t-11 27q0 15 11 26.5t26 11.5
q16 0 27 -11.5t11 -26.5q0 -16 -11 -27t-27 -11zM187 833q-16 0 -27 11t-11 27q0 15 11 26.5t27 11.5t27 -11.5t11 -26.5q0 -16 -11 -27t-27 -11z" />
    <glyph glyph-name="lamThreedotsabove-ar.medi" unicode="&#x6b7;" horiz-adv-x="287" 
d="M0 -5l6 53q60 0 85.5 16.5t30 51t2.5 89.5l-18 509h54l16 -507q2 -62 15 -96.5t38.5 -48.5t64.5 -14q14 0 19.5 -7.5t5.5 -17.5q0 -11 -9 -19.5t-23 -8.5q-54 0 -84 23t-42 55q-16 -37 -53 -57.5t-108 -20.5zM135 929q-15 0 -26.5 11.5t-11.5 26.5q0 16 11.5 27t26.5 11
q16 0 27 -11t11 -27q0 -15 -11 -26.5t-27 -11.5zM75 833q-15 0 -26 11t-11 27q0 15 11 26.5t26 11.5q16 0 27 -11.5t11 -26.5q0 -16 -11 -27t-27 -11zM196 833q-16 0 -27 11t-11 27q0 15 11 26.5t27 11.5t27 -11.5t11 -26.5q0 -16 -11 -27t-27 -11z" />
    <glyph glyph-name="lamThreedotsabove-ar.fina" unicode="&#x6b7;" horiz-adv-x="730" 
d="M40 -12q0 38 10 81.5t37 104.5l47 -20q-40 -92 -40 -161q0 -55 28.5 -93.5t75 -58t100.5 -19.5q94 0 150.5 40.5t80.5 110t21 155.5l-20 586h54l17 -523q2 -71 40.5 -107t95.5 -36q13 0 19 -7.5t6 -17.5q0 -11 -9 -19.5t-23 -8.5q-46 0 -78.5 20.5t-49.5 49.5
q-5 -56 -23.5 -109t-54 -95t-92.5 -67t-138 -25q-68 0 -125.5 25.5t-93 74.5t-35.5 119zM310 672q-15 0 -26.5 11.5t-11.5 26.5q0 16 11.5 27t26.5 11q16 0 27 -11t11 -27q0 -15 -11 -26.5t-27 -11.5zM250 576q-15 0 -26 11t-11 27q0 15 11 26.5t26 11.5q16 0 27 -11.5
t11 -26.5q0 -16 -11 -27t-27 -11zM371 576q-16 0 -27 11t-11 27q0 15 11 26.5t27 11.5t27 -11.5t11 -26.5q0 -16 -11 -27t-27 -11z" />
    <glyph glyph-name="lamThreedotsbelow-ar.init" unicode="&#x6b8;" horiz-adv-x="234" 
d="M0 -5l6 53q58 0 83 13t30 44t3 85l-18 524h52l20 -518q2 -69 -9.5 -113.5t-50 -66t-116.5 -21.5zM52 -135q-15 0 -25.5 10t-10.5 25t10.5 25.5t25.5 10.5q14 0 25 -10.5t11 -25.5t-11 -25t-25 -10zM166 -135q-15 0 -25.5 10t-10.5 25t10.5 25.5t25.5 10.5
q14 0 24.5 -10.5t10.5 -25.5t-10.5 -25t-24.5 -10zM109 -227q-15 0 -25.5 10.5t-10.5 24.5q0 15 10.5 26t25.5 11q14 0 24.5 -11t10.5 -26q0 -14 -10.5 -24.5t-24.5 -10.5z" />
    <glyph glyph-name="lamThreedotsbelow-ar.medi" unicode="&#x6b8;" horiz-adv-x="287" 
d="M0 -5l6 53q60 0 85.5 16.5t30 51t2.5 89.5l-18 509h54l16 -507q2 -62 15 -96.5t38.5 -48.5t64.5 -14q14 0 19.5 -7.5t5.5 -17.5q0 -11 -9 -19.5t-23 -8.5q-54 0 -84 23t-42 55q-16 -37 -53 -57.5t-108 -20.5zM84 -135q-15 0 -25.5 10t-10.5 25t10.5 25.5t25.5 10.5
q14 0 25 -10.5t11 -25.5t-11 -25t-25 -10zM198 -135q-15 0 -25.5 10t-10.5 25t10.5 25.5t25.5 10.5q14 0 24.5 -10.5t10.5 -25.5t-10.5 -25t-24.5 -10zM141 -227q-15 0 -25.5 10.5t-10.5 24.5q0 15 10.5 26t25.5 11q14 0 24.5 -11t10.5 -26q0 -14 -10.5 -24.5t-24.5 -10.5z
" />
    <glyph glyph-name="lamThreedotsbelow-ar.fina" unicode="&#x6b8;" horiz-adv-x="728" 
d="M40 150q0 36 10 80t37 104l47 -19q-40 -91 -40 -161q0 -56 28.5 -94t75 -57.5t100.5 -19.5q134 0 193 77t55 206l-16 448h53l16 -503q2 -83 40.5 -123t95.5 -40q13 0 19 -7.5t6 -17.5q0 -11 -9 -19.5t-23 -8.5q-54 0 -96 28t-62 80q-16 -45 -49 -84.5t-88 -64t-139 -24.5
q-68 0 -125.5 25.5t-93 74.5t-35.5 120zM245.357 -178.946q-14.5498 0 -24.7344 9.7002q-10.1846 9.69922 -10.1846 24.249t10.1846 24.7344t24.7344 10.1846q13.5801 0 24.249 -10.1846q10.6699 -10.1846 10.6699 -24.7344t-10.6699 -24.249
q-10.6689 -9.7002 -24.249 -9.7002zM355.934 -178.946q-14.5488 0 -24.7334 9.7002q-10.1846 9.69922 -10.1846 24.249t10.1846 24.7344t24.7334 10.1846q13.5801 0 23.7646 -10.1846t10.1846 -24.7344t-10.1846 -24.249q-10.1846 -9.7002 -23.7646 -9.7002z
M300.646 -268.184q-14.5498 0 -24.7344 10.1846t-10.1846 23.7646q0 14.5498 10.1846 25.2188q10.1846 10.6699 24.7344 10.6699q13.5801 0 23.7646 -10.6699q10.1846 -10.6689 10.1846 -25.2188q0 -13.5801 -10.1846 -23.7646t-23.7646 -10.1846z" />
    <glyph glyph-name="noonDotbelow-ar.init" unicode="&#x6b9;" horiz-adv-x="259" 
d="M0 -5l7 53q77 0 105 22t28 79q0 40 -15 96t-38 119l52 19q22 -57 36.5 -119t14.5 -104q0 -86 -43 -125.5t-147 -39.5zM111 513q-16 0 -27 11t-11 27q0 15 11 26.5t27 11.5t27 -11.5t11 -26.5q0 -16 -11 -27t-27 -11zM103 -182q-16 0 -27 11.5t-11 26.5q0 16 11 27t27 11
t27 -11t11 -27q0 -15 -11 -26.5t-27 -11.5z" />
    <glyph glyph-name="noonDotbelow-ar.medi" unicode="&#x6b9;" horiz-adv-x="348" 
d="M0 -5l7 53q41 0 67.5 6.5t44 28.5t31 67.5t28.5 123.5l52 -10q-9 -40 -15.5 -72t-6.5 -60q0 -24 9.5 -43t40.5 -30t96 -11q14 0 20 -7.5t6 -17.5q0 -11 -9 -19.5t-23 -8.5q-83 0 -123 21t-48 62q-19 -36 -42.5 -53.5t-56 -23.5t-78.5 -6zM196 398q-16 0 -27 11t-11 27
q0 15 11 26.5t27 11.5t27 -11.5t11 -26.5q0 -16 -11 -27t-27 -11zM172 -182q-16 0 -27 11.5t-11 26.5q0 16 11 27t27 11t27 -11t11 -27q0 -15 -11 -26.5t-27 -11.5z" />
    <glyph glyph-name="noonDotbelow-ar.fina" unicode="&#x6b9;" horiz-adv-x="740" 
d="M40 135q0 37 10 81t37 104l47 -20q-40 -91 -40 -160q0 -57 28.5 -95.5t78.5 -57.5t115 -19q89 0 143.5 31.5t79 80.5t24.5 100q0 60 -15.5 120t-29.5 106l52 14q9 -33 18.5 -69t20.5 -75q12 -40 24.5 -80t28.5 -73.5t36.5 -54t47.5 -20.5q14 0 20 -7.5t6 -17.5
q0 -11 -9 -19.5t-23 -8.5q-52 0 -82.5 36t-50.5 94q-12 -58 -47 -105.5t-95.5 -75.5t-150.5 -28q-79 0 -141 25t-97.5 74t-35.5 120zM327 560q-16 0 -27 11t-11 27q0 15 11 26.5t27 11.5t27 -11.5t11 -26.5q0 -16 -11 -27t-27 -11zM313 -258q-16 0 -27 11t-11 26
q0 16 11 27.5t27 11.5t27 -11.5t11 -27.5q0 -15 -11 -26t-27 -11z" />
    <glyph glyph-name="noonRing-ar.init" unicode="&#x6bc;" horiz-adv-x="284" 
d="M0 -5l7 53q61 0 94.5 8.5t46 30.5t12.5 62t-15 96t-38 119l52 19q22 -57 36.5 -119t14.5 -104q0 -58 -19.5 -94t-65 -53.5t-125.5 -17.5zM99 -128q-34 0 -58.5 25t-24.5 59t24.5 58t58.5 24t59 -24t25 -58t-25 -59t-59 -25zM99 -92q20 0 34 14t14 34t-14 33.5t-34 13.5
t-34 -13.5t-14 -33.5t14 -34t34 -14zM135 513q-16 0 -27 11t-11 27q0 15 11 26.5t27 11.5t27 -11.5t11 -26.5q0 -16 -11 -27t-27 -11z" />
    <glyph glyph-name="noonRing-ar.medi" unicode="&#x6bc;" horiz-adv-x="362" 
d="M0 -5l7 53q42 0 70.5 7t48 29.5t34 68t28.5 121.5l52 -10q-9 -40 -15.5 -72t-6.5 -60q0 -18 3.5 -33.5t17.5 -26.5t45 -17.5t85 -6.5q13 0 19 -7.5t6 -17.5q0 -11 -9 -19.5t-23 -8.5q-95 0 -132 21t-44 62q-20 -36 -45 -54t-59.5 -23.5t-81.5 -5.5zM127 -120
q-34 0 -58.5 25t-24.5 59t24.5 58t58.5 24t59 -24t25 -58t-25 -59t-59 -25zM127 -84q20 0 34 14t14 34t-14 33.5t-34 13.5t-34 -13.5t-14 -33.5t14 -34t34 -14zM201 398q-16 0 -27 11t-11 27q0 15 11 26.5t27 11.5t27 -11.5t11 -26.5q0 -16 -11 -27t-27 -11z" />
    <glyph glyph-name="noonRing-ar.fina" unicode="&#x6bc;" horiz-adv-x="740" 
d="M40 135q0 37 10 81t37 104l47 -20q-40 -91 -40 -160q0 -57 28.5 -95.5t78.5 -57.5t115 -19q89 0 143.5 31.5t79 80.5t24.5 100q0 60 -15.5 120t-29.5 106l52 14q9 -33 18.5 -69t20.5 -75q12 -40 24.5 -80t28.5 -73.5t36.5 -54t47.5 -20.5q14 0 20 -7.5t6 -17.5
q0 -11 -9 -19.5t-23 -8.5q-52 0 -82.5 36t-50.5 94q-12 -58 -47 -105.5t-95.5 -75.5t-150.5 -28q-79 0 -141 25t-97.5 74t-35.5 120zM327 560q-16 0 -27 11t-11 27q0 15 11 26.5t27 11.5t27 -11.5t11 -26.5q0 -16 -11 -27t-27 -11zM329 -226q-34 0 -58.5 25t-24.5 59
t24.5 58t58.5 24t59 -24t25 -58t-25 -59t-59 -25zM329 -190q20 0 34 14t14 34t-14 33.5t-34 13.5t-34 -13.5t-14 -33.5t14 -34t34 -14z" />
    <glyph glyph-name="noonThreedotsabove-ar.init" unicode="&#x6bd;" horiz-adv-x="259" 
d="M0 -5l7 53q77 0 105 22t28 79q0 40 -15 96t-38 119l52 19q22 -57 36.5 -119t14.5 -104q0 -86 -43 -125.5t-147 -39.5zM112 609q-15 0 -26.5 11.5t-11.5 26.5q0 16 11.5 27t26.5 11q16 0 27 -11t11 -27q0 -15 -11 -26.5t-27 -11.5zM52 513q-15 0 -26 11t-11 27
q0 15 11 26.5t26 11.5q16 0 27 -11.5t11 -26.5q0 -16 -11 -27t-27 -11zM173 513q-16 0 -27 11t-11 27q0 15 11 26.5t27 11.5t27 -11.5t11 -26.5q0 -16 -11 -27t-27 -11z" />
    <glyph glyph-name="noonThreedotsabove-ar.medi" unicode="&#x6bd;" horiz-adv-x="348" 
d="M0 -5l7 53q41 0 67.5 6.5t44 28.5t31 67.5t28.5 123.5l52 -10q-9 -40 -15.5 -72t-6.5 -60q0 -24 9.5 -43t40.5 -30t96 -11q14 0 20 -7.5t6 -17.5q0 -11 -9 -19.5t-23 -8.5q-83 0 -123 21t-48 62q-19 -36 -42.5 -53.5t-56 -23.5t-78.5 -6zM198 494q-15 0 -26.5 11.5
t-11.5 26.5q0 16 11.5 27t26.5 11q16 0 27 -11t11 -27q0 -15 -11 -26.5t-27 -11.5zM138 398q-15 0 -26 11t-11 27q0 15 11 26.5t26 11.5q16 0 27 -11.5t11 -26.5q0 -16 -11 -27t-27 -11zM259 398q-16 0 -27 11t-11 27q0 15 11 26.5t27 11.5t27 -11.5t11 -26.5q0 -16 -11 -27
t-27 -11z" />
    </font>
</defs>
</svg>
