<?xml version="1.0" standalone="no"?>
<!DOCTYPE svg PUBLIC "-//W3C//DTD SVG 1.1//EN" "http://www.w3.org/Graphics/SVG/1.1/DTD/svg11.dtd" >
<svg xmlns="http://www.w3.org/2000/svg" xmlns:xlink="http://www.w3.org/1999/xlink" version="1.1">
<metadata>
Created by FontForge 20170731 at Wed Sep 20 00:59:34 2017
 By Aleksey,,,
Copyright 2016 Google Inc. All Rights Reserved.
</metadata>
<defs>
<font id="NotoSansArabicUI-Bold" horiz-adv-x="0" >
  <font-face 
    font-family="Noto Sans Arabic UI"
    font-weight="700"
    font-stretch="normal"
    units-per-em="1000"
    panose-1="2 11 8 2 4 5 4 2 2 4"
    ascent="800"
    descent="-200"
    bbox="-112 -292 2612 1055"
    underline-thickness="50"
    underline-position="-175"
    unicode-range="U+0020-FEFC"
  />
<missing-glyph horiz-adv-x="600" 
d="M94 0v714h411v-714h-411zM145 51h309v612h-309v-612z" />
    <glyph glyph-name="uniFD82" unicode="&#xfee0;&#xfea4;&#xfef0;" horiz-adv-x="1798" arabic-form="final" 
d="M1454 -5l10 140q46 0 66 9.5t24 36t2 77.5l-16 474h142l17 -473q2 -51 12 -77.5t33.5 -36.5t63.5 -10q38 0 54 -19.5t16 -48.5q0 -31 -21 -51.5t-59 -20.5q-52 0 -95 14t-65 57q-28 -42 -72 -56.5t-112 -14.5zM800 -5l10 140q108 0 210 24t181 77q-46 27 -101.5 42
t-121.5 15q-25 0 -51.5 -2.5t-53.5 -8.5l-20 137q29 7 61 11t58 4q68 0 122 -18t98.5 -42t83 -42t75.5 -18h37l16 -133q-22 -1 -42 -6t-39 -12q25 -16 60 -22t81 -6q38 0 54 -19.5t16 -48.5q0 -31 -20.5 -51.5t-59.5 -20.5q-80 0 -141 23t-98 90q-46 -26 -101.5 -52
t-131.5 -43.5t-182 -17.5zM26 28q0 34 9.5 87t42.5 126l123 -43q-17 -47 -26 -80.5t-9 -65.5q0 -66 56.5 -104.5t162.5 -38.5q110 0 172.5 20.5t62.5 60.5q0 17 -27.5 34t-94.5 41l33 141q85 -36 155 -53.5t124 -17.5q38 0 54 -19.5t16 -48.5q0 -31 -21 -51.5t-59 -20.5h-46
q2 -10 2 -17.5v-14.5q0 -33 -22.5 -67t-69.5 -63t-119.5 -46.5t-172.5 -17.5q-163 0 -254.5 62.5t-91.5 196.5z" />
    <glyph glyph-name="uniFDF2" unicode="&#x627;&#xfedf;&#xfee0;&#xfeea;" horiz-adv-x="1470" arabic-form="isolated" 
d="M556 -5q-75 0 -128 20.5t-80 67.5q-63 -12 -121 -7.5t-103 25t-71 59t-26 95.5q0 67 36.5 117.5t99.5 86t144 53.5l-3 76h141l17 -354q3 -62 27.5 -80.5t76.5 -18.5q44 0 64 6.5t25 32.5t3 84l-14 371h142l15 -370q2 -53 12 -81.5t33.5 -38.5t63.5 -10q46 0 66 9.5
t24 37.5t2 82l-18 474h141l20 -484q2 -58 -4.5 -104.5t-31 -79.5t-75 -51t-134.5 -18q-52 0 -95 16.5t-65 55.5q-28 -38 -72 -55t-112 -17zM1277 0l-21 732h140l21 -732h-140zM320 219l-6 154q-68 -11 -107.5 -40t-39.5 -65q0 -23 22 -36.5t57.5 -16.5t73.5 4zM630 660
q-37 0 -50 25.5t-13 57.5q0 11 1.5 23.5t4.5 28.5l60 14q-6 -34 -6 -57q0 -27 19 -27q12 0 19.5 14t7.5 54v30l58 18v-61q0 -25 19 -25q14 0 19.5 8.5t5.5 20.5q0 17 -4 34.5t-11 34.5l55 14q10 -20 16.5 -44t6.5 -44q0 -33 -19 -59.5t-62 -26.5q-28 0 -47 18
q-9 -23 -30 -37t-50 -14zM651 875l-7 178h91l7 -178h-91z" />
    <glyph glyph-name="uniFEF5" unicode="&#xfedf;&#xfe82;" horiz-adv-x="632" arabic-form="isolated" 
d="M394 536q0 50 -7.5 98.5t-13.5 81.5l140 20q3 -20 7.5 -53t7.5 -69.5t3 -69.5q0 -119 -49 -210q58 -61 77.5 -107t19.5 -80q0 -39 -16.5 -72.5t-53.5 -54t-99 -20.5h-294v134q132 95 198 180q-54 44 -124 94t-150 100l73 107q84 -52 149.5 -98t114.5 -87q17 50 17 106z
M296 135h65q51 0 67 9t16 24q0 20 -38 61q-45 -48 -110 -94zM514 810q-30 0 -54 10.5t-44 20.5t-37 10q-18 0 -32.5 -9t-30.5 -25l-47 44q54 68 110 68q25 0 46 -10t42.5 -20t46.5 -10q16 0 30 5.5t34 17.5l35 -55q-36 -32 -59.5 -39.5t-39.5 -7.5z" />
    <glyph glyph-name="uniFEF6" unicode="&#xfee0;&#xfe82;" horiz-adv-x="681" arabic-form="final" 
d="M142 -5q-27 0 -54.5 4.5t-38.5 6.5l19 145q72 -10 140 -3.5t120 36.5q-41 60 -114 143t-174 177l87 95q88 -84 145 -142.5t91.5 -98.5t54.5 -69q17 44 17 99l-13 344h140l21 -489q2 -46 10 -69t30.5 -31t66.5 -8q38 0 54.5 -19.5t16.5 -48.5q0 -31 -21 -51.5t-60 -20.5
q-79 0 -126.5 13.5t-72 42t-32.5 71.5q-28 -44 -67 -70t-82 -38t-84 -15.5t-74 -3.5zM551 810q-30 0 -54 10.5t-44 20.5t-37 10q-18 0 -32.5 -9t-30.5 -25l-47 44q54 68 110 68q25 0 46 -10t42.5 -20t46.5 -10q16 0 30 5.5t34 17.5l35 -55q-36 -32 -59.5 -39.5t-39.5 -7.5z
" />
    <glyph glyph-name="uniFEF7" unicode="&#xfedf;&#xfe84;" horiz-adv-x="632" arabic-form="isolated" 
d="M394 536q0 50 -7.5 98.5t-13.5 81.5l140 20q3 -20 7.5 -53t7.5 -69.5t3 -69.5q0 -119 -49 -210q58 -61 77.5 -107t19.5 -80q0 -39 -16.5 -72.5t-53.5 -54t-99 -20.5h-294v134q132 95 198 180q-54 44 -124 94t-150 100l73 107q84 -52 149.5 -98t114.5 -87q17 50 17 106z
M296 135h65q51 0 67 9t16 24q0 20 -38 61q-45 -48 -110 -94zM345 777l-17 70q32 6 51 10q-18 13 -31 34t-13 46q0 36 16 58t41 32t52 10q29 0 53 -8l-8 -72l-20 4t-22 2q-14 0 -24 -8.5t-10 -20.5q0 -20 16.5 -34.5t33.5 -20.5q32 9 59 20l20 -67q-38 -14 -92.5 -29.5
t-104.5 -25.5z" />
    <glyph glyph-name="uniFEF8" unicode="&#xfee0;&#xfe84;" horiz-adv-x="681" arabic-form="final" 
d="M142 -5q-27 0 -54.5 4.5t-38.5 6.5l19 145q72 -10 140 -3.5t120 36.5q-41 60 -114 143t-174 177l87 95q88 -84 145 -142.5t91.5 -98.5t54.5 -69q17 44 17 99l-13 344h140l21 -489q2 -46 10 -69t30.5 -31t66.5 -8q38 0 54.5 -19.5t16.5 -48.5q0 -31 -21 -51.5t-60 -20.5
q-79 0 -126.5 13.5t-72 42t-32.5 71.5q-28 -44 -67 -70t-82 -38t-84 -15.5t-74 -3.5zM382 777l-17 70q32 6 51 10q-18 13 -31 34t-13 46q0 36 16 58t41 32t52 10q29 0 53 -8l-8 -72l-20 4t-22 2q-14 0 -24 -8.5t-10 -20.5q0 -20 16.5 -34.5t33.5 -20.5q32 9 59 20l20 -67
q-38 -14 -92.5 -29.5t-104.5 -25.5z" />
    <glyph glyph-name="uniFEF9" unicode="&#xfedf;&#xfe88;" horiz-adv-x="632" arabic-form="isolated" 
d="M394 536q0 50 -7.5 98.5t-13.5 81.5l140 20q3 -20 7.5 -53t7.5 -69.5t3 -69.5q0 -119 -49 -210q58 -61 77.5 -107t19.5 -80q0 -39 -16.5 -72.5t-53.5 -54t-99 -20.5h-294v134q132 95 198 180q-54 44 -124 94t-150 100l73 107q84 -52 149.5 -98t114.5 -87q17 50 17 106z
M296 135h65q51 0 67 9t16 24q0 20 -38 61q-45 -48 -110 -94zM107.602 -264.186l-15.3008 63.001q28.8008 5.40039 45.9014 9.00098q-16.2002 11.7002 -27.9014 30.6006q-11.7002 18.9004 -11.7002 41.4014q0 32.4004 14.4004 52.2012t36.9014 28.8008q22.5 9 46.8008 9
q26.1016 0 47.7012 -7.2002l-7.19922 -64.8018q-9.00098 1.7998 -18.001 3.59961q-9 1.80078 -19.8008 1.80078q-12.6006 0 -21.6006 -7.65039t-9 -18.4502q0 -18.001 14.8506 -31.0508q14.8506 -13.0508 30.1504 -18.4512q28.8008 8.10059 53.1016 18.001l18.001 -60.3018
q-34.2012 -12.6006 -83.2529 -26.5508q-49.0508 -13.9502 -94.0518 -22.9502z" />
    <glyph glyph-name="uniFEFA" unicode="&#xfee0;&#xfe88;" horiz-adv-x="681" arabic-form="final" 
d="M142 -5q-27 0 -54.5 4.5t-38.5 6.5l19 145q72 -10 140 -3.5t120 36.5q-41 60 -114 143t-174 177l87 95q88 -84 145 -142.5t91.5 -98.5t54.5 -69q17 44 17 99l-13 344h140l21 -489q2 -46 10 -69t30.5 -31t66.5 -8q38 0 54.5 -19.5t16.5 -48.5q0 -31 -21 -51.5t-60 -20.5
q-79 0 -126.5 13.5t-72 42t-32.5 71.5q-28 -44 -67 -70t-82 -38t-84 -15.5t-74 -3.5zM107.602 -264.186l-15.3008 63.001q28.8008 5.40039 45.9014 9.00098q-16.2002 11.7002 -27.9014 30.6006q-11.7002 18.9004 -11.7002 41.4014q0 32.4004 14.4004 52.2012
t36.9014 28.8008q22.5 9 46.8008 9q26.1016 0 47.7012 -7.2002l-7.19922 -64.8018q-9.00098 1.7998 -18.001 3.59961q-9 1.80078 -19.8008 1.80078q-12.6006 0 -21.6006 -7.65039t-9 -18.4502q0 -18.001 14.8506 -31.0508q14.8506 -13.0508 30.1504 -18.4512
q28.8008 8.10059 53.1016 18.001l18.001 -60.3018q-34.2012 -12.6006 -83.2529 -26.5508q-49.0508 -13.9502 -94.0518 -22.9502z" />
    <glyph glyph-name="uniFEFB" unicode="&#xfedf;&#xfe8e;" horiz-adv-x="632" arabic-form="isolated" 
d="M394 536q0 50 -7.5 98.5t-13.5 81.5l140 20q3 -20 7.5 -53t7.5 -69.5t3 -69.5q0 -119 -49 -210q58 -61 77.5 -107t19.5 -80q0 -39 -16.5 -72.5t-53.5 -54t-99 -20.5h-294v134q132 95 198 180q-54 44 -124 94t-150 100l73 107q84 -52 149.5 -98t114.5 -87q17 50 17 106z
M296 135h65q51 0 67 9t16 24q0 20 -38 61q-45 -48 -110 -94z" />
    <glyph glyph-name="uniFEFC" unicode="&#xfee0;&#xfe8e;" horiz-adv-x="681" arabic-form="final" 
d="M142 -5q-27 0 -54.5 4.5t-38.5 6.5l19 145q72 -10 140 -3.5t120 36.5q-41 60 -114 143t-174 177l87 95q88 -84 145 -142.5t91.5 -98.5t54.5 -69q17 44 17 99l-13 344h140l21 -489q2 -46 10 -69t30.5 -31t66.5 -8q38 0 54.5 -19.5t16.5 -48.5q0 -31 -21 -51.5t-60 -20.5
q-79 0 -126.5 13.5t-72 42t-32.5 71.5q-28 -44 -67 -70t-82 -38t-84 -15.5t-74 -3.5z" />
    <glyph glyph-name="lam_alefWasla-ar" unicode="&#xfedf;&#xfb51;" horiz-adv-x="632" 
d="M394 536q0 50 -7.5 98.5t-13.5 81.5l140 20q3 -20 7.5 -53t7.5 -69.5t3 -69.5q0 -119 -49 -210q58 -61 77.5 -107t19.5 -80q0 -39 -16.5 -72.5t-53.5 -54t-99 -20.5h-294v134q132 95 198 180q-54 44 -124 94t-150 100l73 107q84 -52 149.5 -98t114.5 -87q17 50 17 106z
M296 135h65q51 0 67 9t16 24q0 20 -38 61q-45 -48 -110 -94zM426 800q-22 0 -52.5 2t-58 5.5t-40.5 5.5l7 66q8 -1 19 -2.5t24 -2.5q13 31 35.5 63.5t53 54t69.5 21.5q41 0 71 -26t30 -73q0 -31 -12.5 -56.5t-47 -41.5t-98.5 -16zM480 945q-19 0 -41 -19.5t-40 -57.5
q15 -1 27 -1q56 0 73 12.5t17 29.5q0 18 -11 27t-25 9z" />
    <glyph glyph-name="lam_alefWasla-ar.fina" unicode="&#xfee0;&#xfb51;" horiz-adv-x="681" 
d="M142 -5q-27 0 -54.5 4.5t-38.5 6.5l19 145q72 -10 140 -3.5t120 36.5q-41 60 -114 143t-174 177l87 95q88 -84 145 -142.5t91.5 -98.5t54.5 -69q17 44 17 99l-13 344h140l21 -489q2 -46 10 -69t30.5 -31t66.5 -8q38 0 54.5 -19.5t16.5 -48.5q0 -31 -21 -51.5t-60 -20.5
q-79 0 -126.5 13.5t-72 42t-32.5 71.5q-28 -44 -67 -70t-82 -38t-84 -15.5t-74 -3.5zM463 800q-22 0 -52.5 2t-58 5.5t-40.5 5.5l7 66q8 -1 19 -2.5t24 -2.5q13 31 35.5 63.5t53 54t69.5 21.5q41 0 71 -26t30 -73q0 -31 -12.5 -56.5t-47 -41.5t-98.5 -16zM517 945
q-19 0 -41 -19.5t-40 -57.5q15 -1 27 -1q56 0 73 12.5t17 29.5q0 18 -11 27t-25 9z" />
    <glyph glyph-name="yehKashmiri-ar.init" unicode="&#x620;" horiz-adv-x="359" 
d="M0 -5l10 140q60 0 92 6t44.5 22.5t12.5 47.5q0 28 -7.5 67t-19.5 80.5t-24 77.5l138 38q12 -34 24.5 -79t20.5 -93t8 -91q0 -68 -22 -110.5t-61.5 -65.5t-94.5 -31.5t-121 -8.5zM125 -132q-42 0 -71 29.5t-29 70.5t29 70.5t71 29.5q41 0 70.5 -29.5t29.5 -70.5
t-29.5 -70.5t-70.5 -29.5zM124 -66q16 0 26.5 9.5t10.5 24.5q0 16 -10.5 25.5t-26.5 9.5q-15 0 -25.5 -10t-10.5 -25t10.5 -24.5t25.5 -9.5z" />
    <glyph glyph-name="yehKashmiri-ar.medi" unicode="&#x620;" horiz-adv-x="409" 
d="M0 -5l10 140q36 0 62 7t44 28.5t30.5 63.5t22.5 112l131 -22q-4 -23 -9 -55t-5 -59q0 -36 30 -55.5t103 -19.5q37 0 53.5 -19.5t16.5 -48.5q0 -31 -20.5 -51.5t-59.5 -20.5q-70 0 -119.5 18t-72.5 64q-27 -36 -63.5 -53.5t-76 -23t-77.5 -5.5zM131 -124q-42 0 -71 29.5
t-29 70.5t29 70.5t71 29.5q41 0 70.5 -29.5t29.5 -70.5t-29.5 -70.5t-70.5 -29.5zM130 -58q16 0 26.5 9.5t10.5 24.5q0 16 -10.5 25.5t-26.5 9.5q-15 0 -25.5 -10t-10.5 -25t10.5 -24.5t25.5 -9.5z" />
    <glyph glyph-name="yehKashmiri-ar.fina" unicode="&#x620;" horiz-adv-x="859" 
d="M26 227q0 35 9.5 87t42.5 126l123 -43q-17 -47 -26 -81t-9 -65q0 -66 56.5 -106.5t162.5 -40.5q88 0 139.5 18t51.5 43q0 11 -9 22.5t-32.5 29t-68.5 48.5l83 121q70 -68 119 -115.5t84 -77.5t62.5 -44t54.5 -14q37 0 53.5 -19.5t16.5 -48.5q0 -31 -21 -51.5t-59 -20.5
q-46 0 -89 17t-83 63q-21 -29 -61.5 -54.5t-103 -41t-150.5 -15.5q-163 0 -254.5 65t-91.5 198zM352 -196q-42 0 -71 29.5t-29 70.5t29 70.5t71 29.5q41 0 70.5 -29.5t29.5 -70.5t-29.5 -70.5t-70.5 -29.5zM351 -130q16 0 26.5 9.5t10.5 24.5q0 16 -10.5 25.5t-26.5 9.5
q-15 0 -25.5 -10t-10.5 -25t10.5 -24.5t25.5 -9.5z" />
    <glyph glyph-name="kehehTwodotshorizontalabove-ar.init" unicode="&#x63b;" horiz-adv-x="454" 
d="M0 -5l10 140h143q84 0 84 47q0 12 -12.5 38.5t-53.5 64.5q-22 20 -47.5 42.5t-48.5 43t-38 36.5t-15 23q0 22 4.5 50t16.5 38q23 21 74.5 52t125 68t162.5 76l57 -122q-84 -36 -154 -70t-123 -65q69 -57 110.5 -102.5t62 -82t27 -65.5t6.5 -51q0 -24 -11.5 -51.5
t-41 -52.5t-82.5 -41t-136 -16h-120zM230.703 741.107q-21.7002 0 -36.751 14.7002q-15.0498 14.7002 -15.0498 36.4014q0 21.7002 15.0498 37.1006q15.0508 15.4004 36.751 15.4004q21 0 36.0508 -15.4004q15.0498 -15.4004 15.0498 -37.1006q0 -21.7012 -15.0498 -36.4014
q-15.0508 -14.7002 -36.0508 -14.7002zM118.701 678.807q-21.7002 0 -36.751 14.7002q-15.0498 14.7002 -15.0498 36.4004t15.0498 37.1006q15.0508 15.4004 36.751 15.4004q21 0 36.0508 -15.4004q15.0498 -15.4004 15.0498 -37.1006t-15.0498 -36.4004
q-15.0508 -14.7002 -36.0508 -14.7002z" />
    <glyph glyph-name="kehehTwodotshorizontalabove-ar.medi" unicode="&#x63b;" horiz-adv-x="508" 
d="M0 -5l10 140h140q52 0 69 9t17 28q0 22 -21.5 51.5t-53.5 61.5t-64 62t-53.5 52.5t-21.5 32.5q0 41 6.5 59t17.5 29q23 23 74.5 53t124.5 65.5t160 75.5l57 -122q-99 -44 -167 -77t-115 -60q66 -60 114 -115t91 -125q21 -35 45 -52t46.5 -22.5t40.5 -5.5q37 0 54 -19.5
t17 -48.5q0 -31 -21 -51.5t-60 -20.5t-85.5 16t-78.5 56q-32 -39 -81.5 -55.5t-121.5 -16.5h-140zM227.703 739.107q-21.7002 0 -36.751 14.7002q-15.0498 14.7002 -15.0498 36.4014q0 21.7002 15.0498 37.1006q15.0508 15.4004 36.751 15.4004q21 0 36.0508 -15.4004
q15.0498 -15.4004 15.0498 -37.1006q0 -21.7012 -15.0498 -36.4014q-15.0508 -14.7002 -36.0508 -14.7002zM115.701 676.807q-21.7002 0 -36.751 14.7002q-15.0498 14.7002 -15.0498 36.4004t15.0498 37.1006q15.0508 15.4004 36.751 15.4004q21 0 36.0508 -15.4004
q15.0498 -15.4004 15.0498 -37.1006t-15.0498 -36.4004q-15.0508 -14.7002 -36.0508 -14.7002z" />
    <glyph glyph-name="kehehTwodotshorizontalabove-ar.fina" unicode="&#x63b;" horiz-adv-x="952" 
d="M424 -21q-144 0 -230 29t-124 80t-38 116q0 47 12 96.5t23 87.5l125 -29q-7 -28 -13.5 -59.5t-6.5 -55.5q0 -38 26.5 -66t87.5 -43.5t164 -15.5q94 0 143.5 4t68 14.5t18.5 31.5q0 22 -21.5 51.5t-53.5 61.5t-64 62t-53.5 52.5t-21.5 32.5q0 41 6.5 59t17.5 29
q23 23 74.5 53t124.5 65.5t160 75.5l57 -122q-99 -44 -167 -77t-115 -60q66 -60 114 -115t91 -125q21 -35 45 -51.5t46.5 -21t40.5 -4.5q37 0 54 -21t17 -50q0 -32 -21 -50.5t-60 -18.5t-85 15t-79 53q-26 -35 -69 -53t-113.5 -24.5t-180.5 -6.5zM672.703 741.107
q-21.7002 0 -36.751 14.7002q-15.0498 14.7002 -15.0498 36.4014q0 21.7002 15.0498 37.1006q15.0508 15.4004 36.751 15.4004q21 0 36.0508 -15.4004q15.0498 -15.4004 15.0498 -37.1006q0 -21.7012 -15.0498 -36.4014q-15.0508 -14.7002 -36.0508 -14.7002z
M560.701 678.807q-21.7002 0 -36.751 14.7002q-15.0498 14.7002 -15.0498 36.4004t15.0498 37.1006q15.0508 15.4004 36.751 15.4004q21 0 36.0508 -15.4004q15.0498 -15.4004 15.0498 -37.1006t-15.0498 -36.4004q-15.0508 -14.7002 -36.0508 -14.7002z" />
    <glyph glyph-name="kehehThreedotsbelow-ar.init" unicode="&#x63c;" horiz-adv-x="454" 
d="M0 -5l10 140h143q84 0 84 47q0 12 -12.5 38.5t-53.5 64.5q-22 20 -47.5 42.5t-48.5 43t-38 36.5t-15 23q0 22 4.5 50t16.5 38q23 21 74.5 52t125 68t162.5 76l57 -122q-84 -36 -154 -70t-123 -65q69 -57 110.5 -102.5t62 -82t27 -65.5t6.5 -51q0 -24 -11.5 -51.5
t-41 -52.5t-82.5 -41t-136 -16h-120zM140 -137q-20 0 -34.5 14.5t-14.5 34.5t14.5 35t34.5 15q21 0 35.5 -15t14.5 -35t-14.5 -34.5t-35.5 -14.5zM263 -137q-21 0 -35.5 14.5t-14.5 34.5t14.5 35t35.5 15q20 0 34.5 -15t14.5 -35t-14.5 -34.5t-34.5 -14.5zM200 -241
q-21 0 -35 14t-14 35q0 20 14 35t35 15q20 0 35 -15t15 -35q0 -21 -15 -35t-35 -14z" />
    <glyph glyph-name="kehehThreedotsbelow-ar.medi" unicode="&#x63c;" horiz-adv-x="508" 
d="M0 -5l10 140h140q52 0 69 9t17 28q0 22 -21.5 51.5t-53.5 61.5t-64 62t-53.5 52.5t-21.5 32.5q0 41 6.5 59t17.5 29q23 23 74.5 53t124.5 65.5t160 75.5l57 -122q-99 -44 -167 -77t-115 -60q66 -60 114 -115t91 -125q21 -35 45 -52t46.5 -22.5t40.5 -5.5q37 0 54 -19.5
t17 -48.5q0 -31 -21 -51.5t-60 -20.5t-85.5 16t-78.5 56q-32 -39 -81.5 -55.5t-121.5 -16.5h-140zM140 -137q-20 0 -34.5 14.5t-14.5 34.5t14.5 35t34.5 15q21 0 35.5 -15t14.5 -35t-14.5 -34.5t-35.5 -14.5zM263 -137q-21 0 -35.5 14.5t-14.5 34.5t14.5 35t35.5 15
q20 0 34.5 -15t14.5 -35t-14.5 -34.5t-34.5 -14.5zM200 -241q-21 0 -35 14t-14 35q0 20 14 35t35 15q20 0 35 -15t15 -35q0 -21 -15 -35t-35 -14z" />
    <glyph glyph-name="kehehThreedotsbelow-ar.fina" unicode="&#x63c;" horiz-adv-x="952" 
d="M424 -21q-144 0 -230 29t-124 80t-38 116q0 47 12 96.5t23 87.5l125 -29q-7 -28 -13.5 -59.5t-6.5 -55.5q0 -38 26.5 -66t87.5 -43.5t164 -15.5q94 0 143.5 4t68 14.5t18.5 31.5q0 22 -21.5 51.5t-53.5 61.5t-64 62t-53.5 52.5t-21.5 32.5q0 41 6.5 59t17.5 29
q23 23 74.5 53t124.5 65.5t160 75.5l57 -122q-99 -44 -167 -77t-115 -60q66 -60 114 -115t91 -125q21 -35 45 -51.5t46.5 -21t40.5 -4.5q37 0 54 -21t17 -50q0 -32 -21 -50.5t-60 -18.5t-85 15t-79 53q-26 -35 -69 -53t-113.5 -24.5t-180.5 -6.5zM387 -158q-20 0 -34.5 14.5
t-14.5 34.5t14.5 35t34.5 15q21 0 35.5 -15t14.5 -35t-14.5 -34.5t-35.5 -14.5zM510 -158q-21 0 -35.5 14.5t-14.5 34.5t14.5 35t35.5 15q20 0 34.5 -15t14.5 -35t-14.5 -34.5t-34.5 -14.5zM447 -262q-21 0 -35 14t-14 35q0 20 14 35t35 15q20 0 35 -15t15 -35
q0 -21 -15 -35t-35 -14z" />
    <glyph glyph-name="yehVinverted-farsi.init" unicode="&#x63d;" horiz-adv-x="317" 
d="M0 -5l10 140q65 0 91 14.5t26 61.5q0 28 -7.5 67t-19.5 80.5t-24 77.5l138 38q12 -34 24 -79t20.5 -93t8.5 -91q0 -68 -21 -110.5t-58.5 -65.5t-85.5 -31.5t-102 -8.5zM96 770l72 6q10 -20 27 -52.5t35 -65.5t31 -54l-58 -31q-8 11 -20 32t-26 46t-25 46
q-11 -25 -22.5 -51.5t-21 -47t-14.5 -28.5l-58 24q5 10 15.5 32.5t23 50t24 52.5t17.5 41zM215 -237q-29 0 -49.5 20t-20.5 49t20.5 50t49.5 21q28 0 48 -21t20 -50t-20 -49t-48 -20zM42 -237q-29 0 -49.5 20t-20.5 49t20.5 50t49.5 21q28 0 48 -21t20 -50t-20 -49t-48 -20z
" />
    <glyph glyph-name="yehVinverted-farsi.medi" unicode="&#x63d;" horiz-adv-x="384" 
d="M0 -5l10 140q38 0 60.5 7t36 28.5t23 63.5t19.5 112l131 -22q-4 -23 -9 -55t-5 -59q0 -24 10.5 -41t38 -25.5t79.5 -8.5q38 0 54 -19.5t16 -48.5q0 -31 -20.5 -51.5t-59.5 -20.5q-80 0 -124.5 17t-63.5 61q-37 -52 -87.5 -65t-108.5 -13zM166 651l72 6q10 -20 27 -52.5
t35 -65.5t31 -54l-58 -31q-8 11 -20 32t-26 46t-25 46q-11 -25 -22.5 -51.5t-21 -47t-14.5 -28.5l-58 24q5 10 15.5 32.5t23 50t24 52.5t17.5 41zM270 -237q-29 0 -49.5 20t-20.5 49t20.5 50t49.5 21q28 0 48 -21t20 -50t-20 -49t-48 -20zM97 -237q-29 0 -49.5 20t-20.5 49
t20.5 50t49.5 21q28 0 48 -21t20 -50t-20 -49t-48 -20z" />
    <glyph glyph-name="yehVinverted-farsi.fina" unicode="&#x63d;" horiz-adv-x="800" 
d="M26 28q0 34 9.5 87t42.5 126l123 -43q-17 -47 -26 -80.5t-9 -65.5q0 -66 56.5 -104.5t162.5 -38.5q110 0 172.5 20.5t62.5 60.5q0 17 -27.5 34t-94.5 41l33 141q85 -36 155 -53.5t124 -17.5q38 0 54 -19.5t16 -48.5q0 -31 -21 -51.5t-59 -20.5h-46q2 -10 2 -17.5v-14.5
q0 -33 -22.5 -67t-69.5 -63t-119.5 -46.5t-172.5 -17.5q-163 0 -254.5 62.5t-91.5 196.5zM181 520l72 6q10 -20 27 -52.5t35 -65.5t31 -54l-58 -31q-8 11 -20 32t-26 46t-25 46q-11 -25 -22.5 -51.5t-21 -47t-14.5 -28.5l-58 24q5 10 15.5 32.5t23 50t24 52.5t17.5 41z" />
    <glyph glyph-name="yehTwodotsabove-farsi.init" unicode="&#x63e;" horiz-adv-x="359" 
d="M0 -5l10 140q60 0 92 6t44.5 22.5t12.5 47.5q0 28 -7.5 67t-19.5 80.5t-24 77.5l138 38q12 -34 24.5 -79t20.5 -93t8 -91q0 -68 -22 -110.5t-61.5 -65.5t-94.5 -31.5t-121 -8.5zM98 556q-29 0 -49.5 20.5t-20.5 48.5q0 29 20.5 50t49.5 21q28 0 48 -21t20 -50
q0 -28 -20 -48.5t-48 -20.5zM271 555q-29 0 -49.5 20t-20.5 49t20.5 50t49.5 21q28 0 48 -21t20 -50t-20 -49t-48 -20zM247 -237q-29 0 -49.5 20t-20.5 49t20.5 50t49.5 21q28 0 48 -21t20 -50t-20 -49t-48 -20zM74 -237q-29 0 -49.5 20t-20.5 49t20.5 50t49.5 21
q28 0 48 -21t20 -50t-20 -49t-48 -20z" />
    <glyph glyph-name="yehTwodotsabove-farsi.medi" unicode="&#x63e;" horiz-adv-x="409" 
d="M0 -5l10 140q36 0 62 7t44 28.5t30.5 63.5t22.5 112l131 -22q-4 -23 -9 -55t-5 -59q0 -36 30 -55.5t103 -19.5q37 0 53.5 -19.5t16.5 -48.5q0 -31 -20.5 -51.5t-59.5 -20.5q-70 0 -119.5 18t-72.5 64q-27 -36 -63.5 -53.5t-76 -23t-77.5 -5.5zM148 437q-29 0 -49.5 20.5
t-20.5 48.5q0 29 20.5 50t49.5 21q28 0 48 -21t20 -50q0 -28 -20 -48.5t-48 -20.5zM321 436q-29 0 -49.5 20t-20.5 49t20.5 50t49.5 21q28 0 48 -21t20 -50t-20 -49t-48 -20zM279 -237q-29 0 -49.5 20t-20.5 49t20.5 50t49.5 21q28 0 48 -21t20 -50t-20 -49t-48 -20z
M106 -237q-29 0 -49.5 20t-20.5 49t20.5 50t49.5 21q28 0 48 -21t20 -50t-20 -49t-48 -20z" />
    <glyph glyph-name="yehTwodotsabove-farsi.fina" unicode="&#x63e;" horiz-adv-x="800" 
d="M26 28q0 34 9.5 87t42.5 126l123 -43q-17 -47 -26 -80.5t-9 -65.5q0 -66 56.5 -104.5t162.5 -38.5q110 0 172.5 20.5t62.5 60.5q0 17 -27.5 34t-94.5 41l33 141q85 -36 155 -53.5t124 -17.5q38 0 54 -19.5t16 -48.5q0 -31 -21 -51.5t-59 -20.5h-46q2 -10 2 -17.5v-14.5
q0 -33 -22.5 -67t-69.5 -63t-119.5 -46.5t-172.5 -17.5q-163 0 -254.5 62.5t-91.5 196.5zM151.202 296.713q-26.1006 0 -44.5508 18.4512q-18.4502 18.4502 -18.4502 43.6504q0 26.1016 18.4502 45.002t44.5508 18.9004q25.2012 0 43.2012 -18.9004
q18.001 -18.9004 18.001 -45.002q0 -25.2002 -18.001 -43.6504q-18 -18.4512 -43.2012 -18.4512zM306.906 295.813q-26.1006 0 -44.5508 18q-18.4502 18.001 -18.4502 44.1016t18.4502 45.001t44.5508 18.9004q25.2012 0 43.2012 -18.9004q18.001 -18.9004 18.001 -45.001
t-18.001 -44.1016q-18 -18 -43.2012 -18z" />
    <glyph glyph-name="yehThreedotsabove-farsi.init" unicode="&#x63f;" horiz-adv-x="359" 
d="M0 -5l10 140q60 0 92 6t44.5 22.5t12.5 47.5q0 28 -7.5 67t-19.5 80.5t-24 77.5l138 38q12 -34 24.5 -79t20.5 -93t8 -91q0 -68 -22 -110.5t-61.5 -65.5t-94.5 -31.5t-121 -8.5zM191 689q-26 0 -44 19t-18 45t18 44t44 18t44 -18t18 -44t-18 -45t-44 -19zM111 557
q-26 0 -44 19t-18 45t18 44t44 18t44 -18t18 -44t-18 -45t-44 -19zM266 557q-25 0 -43.5 19t-18.5 45t18.5 44t43.5 18q26 0 44 -18t18 -44t-18 -45t-44 -19zM247 -237q-29 0 -49.5 20t-20.5 49t20.5 50t49.5 21q28 0 48 -21t20 -50t-20 -49t-48 -20zM74 -237
q-29 0 -49.5 20t-20.5 49t20.5 50t49.5 21q28 0 48 -21t20 -50t-20 -49t-48 -20z" />
    <glyph glyph-name="yehThreedotsabove-farsi.medi" unicode="&#x63f;" horiz-adv-x="409" 
d="M0 -5l10 140q36 0 62 7t44 28.5t30.5 63.5t22.5 112l131 -22q-4 -23 -9 -55t-5 -59q0 -36 30 -55.5t103 -19.5q37 0 53.5 -19.5t16.5 -48.5q0 -31 -20.5 -51.5t-59.5 -20.5q-70 0 -119.5 18t-72.5 64q-27 -36 -63.5 -53.5t-76 -23t-77.5 -5.5zM241 570q-26 0 -44 19
t-18 45t18 44t44 18t44 -18t18 -44t-18 -45t-44 -19zM161 438q-26 0 -44 19t-18 45t18 44t44 18t44 -18t18 -44t-18 -45t-44 -19zM316 438q-25 0 -43.5 19t-18.5 45t18.5 44t43.5 18q26 0 44 -18t18 -44t-18 -45t-44 -19zM279 -237q-29 0 -49.5 20t-20.5 49t20.5 50t49.5 21
q28 0 48 -21t20 -50t-20 -49t-48 -20zM106 -237q-29 0 -49.5 20t-20.5 49t20.5 50t49.5 21q28 0 48 -21t20 -50t-20 -49t-48 -20z" />
    <glyph glyph-name="yehThreedotsabove-farsi.fina" unicode="&#x63f;" horiz-adv-x="800" 
d="M26 28q0 34 9.5 87t42.5 126l123 -43q-17 -47 -26 -80.5t-9 -65.5q0 -66 56.5 -104.5t162.5 -38.5q110 0 172.5 20.5t62.5 60.5q0 17 -27.5 34t-94.5 41l33 141q85 -36 155 -53.5t124 -17.5q38 0 54 -19.5t16 -48.5q0 -31 -21 -51.5t-59 -20.5h-46q2 -10 2 -17.5v-14.5
q0 -33 -22.5 -67t-69.5 -63t-119.5 -46.5t-172.5 -17.5q-163 0 -254.5 62.5t-91.5 196.5zM236 439q-26 0 -44 19t-18 45t18 44t44 18t44 -18t18 -44t-18 -45t-44 -19zM156 307q-26 0 -44 19t-18 45t18 44t44 18t44 -18t18 -44t-18 -45t-44 -19zM311 307q-25 0 -43.5 19
t-18.5 45t18.5 44t43.5 18q26 0 44 -18t18 -44t-18 -45t-44 -19z" />
    <glyph glyph-name="uniFE71" unicode="&#x64b;" horiz-adv-x="319" 
d="M0 -5l10 140h318q38 0 54.5 -19.5t16.5 -48.5q0 -31 -21 -51.5t-60 -20.5h-318zM43 676v70l236 70v-72zM43 571v70l236 70v-72z" />
    <glyph glyph-name="uniFE77" unicode="&#x64e;" horiz-adv-x="319" 
d="M0 -5l10 140h318q38 0 54.5 -19.5t16.5 -48.5q0 -31 -21 -51.5t-60 -20.5h-318zM43 571v70l236 70v-72z" />
    <glyph glyph-name="uniFE79" unicode="&#x64f;" horiz-adv-x="319" 
d="M0 -5l10 140h318q38 0 54.5 -19.5t16.5 -48.5q0 -31 -21 -51.5t-60 -20.5h-318zM7 563l-11 63q32 0 62.5 6.5t55.5 16.5q-20 14 -33.5 34.5t-13.5 48.5q0 41 28 68t72 27q47 0 71 -30t24 -68q0 -48 -34.5 -84t-92.5 -57t-128 -25zM133 729q0 -15 10 -27.5t25 -21.5
q29 24 29 48q0 13 -8 24.5t-23 11.5q-13 0 -23 -10t-10 -25z" />
    <glyph glyph-name="uniFE7B" unicode="&#x650;" horiz-adv-x="319" 
d="M0 -5l10 140h318q38 0 54.5 -19.5t16.5 -48.5q0 -31 -21 -51.5t-60 -20.5h-318zM64 -183v70l236 70v-72z" />
    <glyph glyph-name="uniFE7D" unicode="&#x651;" horiz-adv-x="319" 
d="M0 -5l10 140h318q38 0 54.5 -19.5t16.5 -48.5q0 -31 -21 -51.5t-60 -20.5h-318zM83 572q-37 0 -50 25.5t-13 57.5q0 11 1.5 23.5t4.5 28.5l60 14q-6 -34 -6 -57q0 -27 19 -27q12 0 19.5 14t7.5 54v30l58 18v-61q0 -25 19 -25q14 0 19.5 8.5t5.5 20.5q0 17 -4 34.5
t-11 34.5l55 14q10 -20 16.5 -44t6.5 -44q0 -33 -19 -59.5t-62 -26.5q-28 0 -47 18q-9 -23 -30 -37t-50 -14z" />
    <glyph glyph-name="uniFE7F" unicode="&#x652;" horiz-adv-x="319" 
d="M0 -5l10 140h318q38 0 54.5 -19.5t16.5 -48.5q0 -31 -21 -51.5t-60 -20.5h-318zM155 599q-48 0 -73 29.5t-25 69.5q0 47 29 82t74 35q28 0 49.5 -16t34 -41.5t12.5 -54.5q0 -44 -28 -74t-73 -30zM154 663q17 0 29.5 11t12.5 29q0 19 -13 31.5t-28 12.5q-19 0 -29.5 -13
t-10.5 -30q0 -18 11 -29.5t28 -11.5z" />
    <glyph glyph-name="dotlessbeh-ar.init" unicode="&#x66e;" horiz-adv-x="317" 
d="M0 -5l10 140q65 0 91 14.5t26 61.5q0 28 -7.5 67t-19.5 80.5t-24 77.5l138 38q12 -34 24 -79t20.5 -93t8.5 -91q0 -68 -21 -110.5t-58.5 -65.5t-85.5 -31.5t-102 -8.5z" />
    <glyph glyph-name="dotlessbeh-ar.medi" unicode="&#x66e;" horiz-adv-x="384" 
d="M0 -5l10 140q38 0 60.5 7t36 28.5t23 63.5t19.5 112l131 -22q-4 -23 -9 -55t-5 -59q0 -24 10.5 -41t38 -25.5t79.5 -8.5q38 0 54 -19.5t16 -48.5q0 -31 -20.5 -51.5t-59.5 -20.5q-80 0 -124.5 17t-63.5 61q-37 -52 -87.5 -65t-108.5 -13z" />
    <glyph glyph-name="dotlessbeh-ar.fina" unicode="&#x66e;" horiz-adv-x="1142" 
d="M424 -21q-144 0 -230 29t-124 80t-38 116q0 47 12 96.5t23 87.5l125 -29q-7 -28 -13.5 -59.5t-6.5 -55.5q0 -38 26.5 -66t87.5 -43.5t164 -15.5v-3l1 3q72 0 138.5 7t127 28t113 62t96.5 110l112 -51q-6 -19 -10 -37t-4 -28q0 -35 27 -55t101 -20q38 0 54 -19.5t16 -48.5
q0 -31 -20.5 -51.5t-59.5 -20.5q-90 0 -147.5 31.5t-76.5 83.5q-77 -68 -205.5 -99.5t-287.5 -31.5v1z" />
    <glyph glyph-name="dotlessqaf-ar.init" unicode="&#x66f;" horiz-adv-x="505" 
d="M0 -5l10 139q82 0 133 1t79.5 4.5t42.5 9t24 12.5q8 6 14.5 15t11.5 22q-41 -15 -85 -15q-80 0 -126 33.5t-46 118.5q0 44 15 87.5t43 79t66 57t84 21.5q68 0 112.5 -39.5t66 -106t21.5 -147.5q0 -71 -21 -123.5t-50 -82.5q-24 -25 -55 -42t-75.5 -26.5t-109 -13.5
t-155.5 -4zM196 362q0 -43 67 -43q32 0 64 10q-5 55 -23 84t-46 29q-24 0 -43 -23t-19 -57z" />
    <glyph glyph-name="dotlessqaf-ar.medi" unicode="&#x66f;" horiz-adv-x="529" 
d="M0 -5l10 139q30 -1 56.5 0.5t49.5 3.5q-22 26 -36.5 58.5t-14.5 73.5q0 62 31 108.5t78.5 72.5t97.5 26q60 0 104 -28t68.5 -73.5t24.5 -97.5q0 -42 -14 -77t-37 -62q30 -2 60.5 -3t59.5 -1q38 0 54.5 -19.5t16.5 -48.5q0 -31 -21 -51.5t-60 -20.5q-74 0 -144 10t-122 29
q-37 -16 -106 -28t-156 -11zM203 260q0 -25 14 -47t39 -41q36 16 55.5 40t19.5 52q0 27 -16.5 53t-45.5 26q-28 0 -47 -24t-19 -59z" />
    <glyph glyph-name="dotlessqaf-ar.fina" unicode="&#x66f;" horiz-adv-x="855" 
d="M349 -271q-89 0 -162.5 26t-117 81.5t-43.5 146.5q0 34 9 84t47 132l122 -47q-22 -54 -30 -84t-8 -61q0 -67 55.5 -102.5t151.5 -35.5q110 0 177.5 37t85.5 86l1 3h-26q-114 0 -168.5 40.5t-55.5 119.5q0 45 16.5 87.5t45.5 75.5t65.5 52.5t75.5 19.5q87 0 141 -67.5
t61 -186.5h73q37 0 53.5 -19.5t16.5 -48.5q0 -32 -21 -52.5t-59 -20.5h-79q-12 -44 -32 -81q-50 -93 -151 -139t-244 -46zM523 179q0 -15 8.5 -27t36 -17.5t85.5 -3.5q-2 60 -20 90.5t-47 30.5q-19 0 -33 -12t-22 -29t-8 -32z" />
    <glyph glyph-name="alefWavyhamzaabove-ar.fina" unicode="&#x672;" horiz-adv-x="316" 
d="M315 -5q-93 0 -143.5 19t-71 59.5t-22.5 102.5l-19 486h140l19 -419q2 -46 10 -69t30 -31t67 -8q37 0 54 -19.5t17 -48.5q0 -31 -21 -51.5t-60 -20.5zM2 744l-54 36q12 28 34 40.5t40 12.5q22 0 40 -11t32 -11h5q-18 14 -30 35.5t-12 45.5q0 45 31.5 71t77.5 26
q30 0 54 -8l-8 -62q-10 2 -19 4t-20 2q-47 0 -47 -33q0 -26 21 -42.5t40 -21.5q17 6 31.5 12t28.5 12l20 -60q-8 -4 -27.5 -12t-43.5 -16t-47 -13.5t-38 -5.5q-29 0 -47 11t-29 11t-17.5 -6t-15.5 -17z" />
    <glyph glyph-name="alefWavyhamzabelow-ar.fina" unicode="&#x673;" horiz-adv-x="318" 
d="M317 -5q-93 0 -143.5 19t-71 59.5t-22.5 102.5l-21 556h140l21 -489q2 -46 10 -69t30 -31t67 -8q37 0 54 -19.5t17 -48.5q0 -31 -21 -51.5t-60 -20.5zM25 -271l-49 33q11 25 31 36.5t36 11.5q20 0 36 -10t29 -10h5q-16 13 -27 32.5t-11 41.5q0 41 28.5 64.5t70.5 23.5
q13 0 26 -2t23 -5l-7 -57q-9 2 -17.5 4t-18.5 2q-43 0 -43 -30q0 -24 20 -39.5t36 -18.5q16 5 29 10.5t25 10.5l19 -54q-7 -4 -25 -11t-40 -14.5t-43 -12.5t-34 -5q-27 0 -43 10t-26 10t-16 -5.5t-14 -15.5z" />
    <glyph glyph-name="highhamzaAlef-ar.fina" unicode="&#x675;" horiz-adv-x="548" 
d="M547 -5h-232q-93 0 -143 19t-70 59.5t-22 102.5l-21 556h140l21 -489q2 -45 10 -68.5t29.5 -31.5t64.5 -8h233q37 0 54 -19.5t17 -48.5q0 -31 -21 -51.5t-60 -20.5zM271 578l-16 66q29 5 47 9q-18 13 -30.5 34t-12.5 45q0 36 16 58t41 32t52 10q29 0 53 -8l-8 -62l-20 4
t-22 2q-44 0 -44 -33q0 -24 18 -40t36 -22q37 11 68 23l19 -63q-38 -14 -92.5 -29.5t-104.5 -25.5z" />
    <glyph glyph-name="highhamzaWaw-ar.fina" unicode="&#x676;" horiz-adv-x="524" 
d="M57 -230l-29 140q90 11 151.5 28.5t95.5 56.5h-27q-94 0 -147.5 34.5t-53.5 118.5q0 45 15.5 90t43.5 82.5t65.5 60t81.5 22.5q59 0 104.5 -37t71 -98t25.5 -133h79q37 0 54 -19.5t17 -48.5q0 -31 -21 -51.5t-60 -20.5h-92q-39 -104 -135.5 -160.5t-238.5 -64.5zM185 172
q0 -11 7.5 -22.5t34.5 -18t86 -1.5q-1 58 -19 91.5t-47 33.5q-21 0 -35 -14.5t-20.5 -34t-6.5 -34.5zM313 430l-17 70q32 6 51 10q-18 13 -31 34t-13 46q0 36 16 58t41 32t52 10q29 0 53 -8l-8 -72l-20 4t-22 2q-14 0 -24 -8.5t-10 -20.5q0 -20 16.5 -34.5t33.5 -20.5
q32 9 59 20l20 -67q-38 -14 -92.5 -29.5t-104.5 -25.5z" />
    <glyph glyph-name="uHamzaabove-ar.fina" unicode="&#x677;" horiz-adv-x="524" 
d="M57 -230l-29 140q90 11 151.5 28.5t95.5 56.5h-27q-94 0 -147.5 34.5t-53.5 118.5q0 45 15.5 90t43.5 82.5t65.5 60t81.5 22.5q59 0 104.5 -37t71 -98t25.5 -133h79q37 0 54 -19.5t17 -48.5q0 -31 -21 -51.5t-60 -20.5h-92q-39 -104 -135.5 -160.5t-238.5 -64.5zM185 172
q0 -11 7.5 -22.5t34.5 -18t86 -1.5q-1 58 -19 91.5t-47 33.5q-21 0 -35 -14.5t-20.5 -34t-6.5 -34.5zM313 430l-17 70q32 6 51 10q-18 13 -31 34t-13 46q0 36 16 58t41 32t52 10q29 0 53 -8l-8 -72l-20 4t-22 2q-14 0 -24 -8.5t-10 -20.5q0 -20 16.5 -34.5t33.5 -20.5
q32 9 59 20l20 -67q-38 -14 -92.5 -29.5t-104.5 -25.5zM8 417l-11 63q32 0 62.5 6.5t55.5 16.5q-20 14 -33.5 34.5t-13.5 48.5q0 41 28 68t72 27q47 0 71 -30t24 -68q0 -48 -34.5 -84t-92.5 -57t-128 -25zM134 583q0 -15 10 -27.5t25 -21.5q29 24 29 48q0 13 -8 24.5
t-23 11.5q-13 0 -23 -10t-10 -25z" />
    <glyph glyph-name="highhamzaYeh-ar.init" unicode="&#x678;" horiz-adv-x="350" 
d="M0 -5l10 140q65 0 91 14.5t26 61.5q0 28 -7.5 67t-19.5 80.5t-24 77.5l138 38q12 -34 24 -79t20.5 -93t8.5 -91q0 -68 -21 -110.5t-58.5 -65.5t-85.5 -31.5t-102 -8.5zM171 578l-16 66q29 5 47 9q-18 13 -30.5 34t-12.5 45q0 36 16 58t41 32t52 10q29 0 53 -8l-8 -62
l-20 4t-22 2q-44 0 -44 -33q0 -24 18 -40t36 -22q37 11 68 23l19 -63q-38 -14 -92.5 -29.5t-104.5 -25.5z" />
    <glyph glyph-name="highhamzaYeh-ar.medi" unicode="&#x678;" horiz-adv-x="384" 
d="M0 -5l10 140q38 0 60.5 7t36 28.5t23 63.5t19.5 112l131 -22q-4 -23 -9 -55t-5 -59q0 -24 10.5 -41t38 -25.5t79.5 -8.5q38 0 54 -19.5t16 -48.5q0 -31 -20.5 -51.5t-59.5 -20.5q-80 0 -124.5 17t-63.5 61q-37 -52 -87.5 -65t-108.5 -13zM167 409l-16 66q29 5 47 9
q-18 13 -30.5 34t-12.5 45q0 36 16 58t41 32t52 10q29 0 53 -8l-8 -62l-20 4t-22 2q-44 0 -44 -33q0 -24 18 -40t36 -22q37 11 68 23l19 -63q-38 -14 -92.5 -29.5t-104.5 -25.5z" />
    <glyph glyph-name="highhamzaYeh-ar.fina" unicode="&#x678;" horiz-adv-x="800" 
d="M26 28q0 34 9.5 87t42.5 126l123 -43q-17 -47 -26 -80.5t-9 -65.5q0 -66 56.5 -104.5t162.5 -38.5q110 0 172.5 20.5t62.5 60.5q0 17 -27.5 34t-94.5 41l33 141q85 -36 155 -53.5t124 -17.5q38 0 54 -19.5t16 -48.5q0 -31 -21 -51.5t-59 -20.5h-46q2 -10 2 -17.5v-14.5
q0 -33 -22.5 -67t-69.5 -63t-119.5 -46.5t-172.5 -17.5q-163 0 -254.5 62.5t-91.5 196.5zM585 215l-16 66q29 5 47 9q-18 13 -30.5 34t-12.5 45q0 36 16 58t41 32t52 10q29 0 53 -8l-8 -62l-20 4t-22 2q-44 0 -44 -33q0 -24 18 -40t36 -22q37 11 68 23l19 -63
q-38 -14 -92.5 -29.5t-104.5 -25.5z" />
    <glyph glyph-name="tehRing-ar.init" unicode="&#x67c;" horiz-adv-x="359" 
d="M0 -5l10 140q60 0 92 6t44.5 22.5t12.5 47.5q0 28 -7.5 67t-19.5 80.5t-24 77.5l138 38q12 -34 24.5 -79t20.5 -93t8 -91q0 -68 -22 -110.5t-61.5 -65.5t-94.5 -31.5t-121 -8.5zM98 556q-29 0 -49.5 20.5t-20.5 48.5q0 29 20.5 50t49.5 21q28 0 48 -21t20 -50
q0 -28 -20 -48.5t-48 -20.5zM271 555q-29 0 -49.5 20t-20.5 49t20.5 50t49.5 21q28 0 48 -21t20 -50t-20 -49t-48 -20zM125 -132q-42 0 -71 29.5t-29 70.5t29 70.5t71 29.5q41 0 70.5 -29.5t29.5 -70.5t-29.5 -70.5t-70.5 -29.5zM124 -66q16 0 26.5 9.5t10.5 24.5
q0 16 -10.5 25.5t-26.5 9.5q-15 0 -25.5 -10t-10.5 -25t10.5 -24.5t25.5 -9.5z" />
    <glyph glyph-name="tehRing-ar.medi" unicode="&#x67c;" horiz-adv-x="384" 
d="M0 -5l10 140q38 0 60.5 7t36 28.5t23 63.5t19.5 112l131 -22q-4 -23 -9 -55t-5 -59q0 -24 10.5 -41t38 -25.5t79.5 -8.5q38 0 54 -19.5t16 -48.5q0 -31 -20.5 -51.5t-59.5 -20.5q-80 0 -124.5 17t-63.5 61q-37 -52 -87.5 -65t-108.5 -13zM120 -127q-42 0 -71 29.5
t-29 70.5t29 70.5t71 29.5q41 0 70.5 -29.5t29.5 -70.5t-29.5 -70.5t-70.5 -29.5zM119 -61q16 0 26.5 9.5t10.5 24.5q0 16 -10.5 25.5t-26.5 9.5q-15 0 -25.5 -10t-10.5 -25t10.5 -24.5t25.5 -9.5zM128 437q-29 0 -49.5 20.5t-20.5 48.5q0 29 20.5 50t49.5 21q28 0 48 -21
t20 -50q0 -28 -20 -48.5t-48 -20.5zM301 436q-29 0 -49.5 20t-20.5 49t20.5 50t49.5 21q28 0 48 -21t20 -50t-20 -49t-48 -20z" />
    <glyph glyph-name="tehRing-ar.fina" unicode="&#x67c;" horiz-adv-x="1142" 
d="M424 -21q-144 0 -230 29t-124 80t-38 116q0 47 12 96.5t23 87.5l125 -29q-7 -28 -13.5 -59.5t-6.5 -55.5q0 -38 26.5 -66t87.5 -43.5t164 -15.5v-3l1 3q72 0 138.5 7t127 28t113 62t96.5 110l112 -51q-6 -19 -10 -37t-4 -28q0 -35 27 -55t101 -20q38 0 54 -19.5t16 -48.5
q0 -31 -20.5 -51.5t-59.5 -20.5q-90 0 -147.5 31.5t-76.5 83.5q-77 -68 -205.5 -99.5t-287.5 -31.5v1zM437 437q-29 0 -49.5 20.5t-20.5 48.5q0 29 20.5 50t49.5 21q28 0 48 -21t20 -50q0 -28 -20 -48.5t-48 -20.5zM610 436q-29 0 -49.5 20t-20.5 49t20.5 50t49.5 21
q28 0 48 -21t20 -50t-20 -49t-48 -20zM505 -156q-42 0 -71 29.5t-29 70.5t29 70.5t71 29.5q41 0 70.5 -29.5t29.5 -70.5t-29.5 -70.5t-70.5 -29.5zM504 -90q16 0 26.5 9.5t10.5 24.5q0 16 -10.5 25.5t-26.5 9.5q-15 0 -25.5 -10t-10.5 -25t10.5 -24.5t25.5 -9.5z" />
    <glyph glyph-name="tehThreedotsdown-ar.init" unicode="&#x67d;" horiz-adv-x="359" 
d="M0 -5l10 140q60 0 92 6t44.5 22.5t12.5 47.5q0 28 -7.5 67t-19.5 80.5t-24 77.5l138 38q12 -34 24.5 -79t20.5 -93t8 -91q0 -68 -22 -110.5t-61.5 -65.5t-94.5 -31.5t-121 -8.5zM107 688q-26 0 -44.5 18t-18.5 44t18.5 45t44.5 19t44 -19t18 -45t-18 -44t-44 -18z
M263 688q-26 0 -44.5 18t-18.5 44t18.5 45t44.5 19t44 -19t18 -45t-18 -44t-44 -18zM183 556q-26 0 -44.5 18t-18.5 44t18.5 45t44.5 19t44 -19t18 -45t-18 -44t-44 -18z" />
    <glyph glyph-name="tehThreedotsdown-ar.medi" unicode="&#x67d;" horiz-adv-x="409" 
d="M0 -5l10 140q36 0 62 7t44 28.5t30.5 63.5t22.5 112l131 -22q-4 -23 -9 -55t-5 -59q0 -36 30 -55.5t103 -19.5q37 0 53.5 -19.5t16.5 -48.5q0 -31 -20.5 -51.5t-59.5 -20.5q-70 0 -119.5 18t-72.5 64q-27 -36 -63.5 -53.5t-76 -23t-77.5 -5.5zM157 569q-26 0 -44.5 18
t-18.5 44t18.5 45t44.5 19t44 -19t18 -45t-18 -44t-44 -18zM313 569q-26 0 -44.5 18t-18.5 44t18.5 45t44.5 19t44 -19t18 -45t-18 -44t-44 -18zM233 437q-26 0 -44.5 18t-18.5 44t18.5 45t44.5 19t44 -19t18 -45t-18 -44t-44 -18z" />
    <glyph glyph-name="tehThreedotsdown-ar.fina" unicode="&#x67d;" horiz-adv-x="1142" 
d="M424 -21q-144 0 -230 29t-124 80t-38 116q0 47 12 96.5t23 87.5l125 -29q-7 -28 -13.5 -59.5t-6.5 -55.5q0 -38 26.5 -66t87.5 -43.5t164 -15.5v-3l1 3q72 0 138.5 7t127 28t113 62t96.5 110l112 -51q-6 -19 -10 -37t-4 -28q0 -35 27 -55t101 -20q38 0 54 -19.5t16 -48.5
q0 -31 -20.5 -51.5t-59.5 -20.5q-90 0 -147.5 31.5t-76.5 83.5q-77 -68 -205.5 -99.5t-287.5 -31.5v1zM446 569q-26 0 -44.5 18t-18.5 44t18.5 45t44.5 19t44 -19t18 -45t-18 -44t-44 -18zM602 569q-26 0 -44.5 18t-18.5 44t18.5 45t44.5 19t44 -19t18 -45t-18 -44t-44 -18z
M522 437q-26 0 -44.5 18t-18.5 44t18.5 45t44.5 19t44 -19t18 -45t-18 -44t-44 -18z" />
    <glyph glyph-name="hahHamzaabove-ar.init" unicode="&#x681;" horiz-adv-x="629" 
d="M0 -5l10 140q108 0 210 24t181 77q-46 27 -101.5 42t-121.5 15q-25 0 -51.5 -2.5t-53.5 -8.5l-20 137q29 7 61 11t58 4q68 0 122 -18t98.5 -42t83 -42t75.5 -18h37l16 -133q-44 -3 -81 -17t-73.5 -35.5t-78 -44.5t-93.5 -43t-120 -33t-158 -13zM63 488l-17 70q32 6 51 10
q-18 13 -31 34t-13 46q0 36 16 58t41 32t52 10q29 0 53 -8l-8 -72l-20 4t-22 2q-14 0 -24 -8.5t-10 -20.5q0 -20 16.5 -34.5t33.5 -20.5q32 9 59 20l20 -67q-38 -14 -92.5 -29.5t-104.5 -25.5z" />
    <glyph glyph-name="hahHamzaabove-ar.medi" unicode="&#x681;" horiz-adv-x="654" 
d="M0 -5l10 140q108 0 210 24t181 77q-46 27 -101.5 42t-121.5 15q-25 0 -51.5 -2.5t-53.5 -8.5l-20 137q29 7 61 11t58 4q68 0 122 -18t98.5 -42t83 -42t75.5 -18h37l16 -133q-22 -1 -42 -6t-39 -12q25 -16 60 -22t81 -6q38 0 54 -19.5t16 -48.5q0 -31 -20.5 -51.5
t-59.5 -20.5q-80 0 -141 23t-98 90q-46 -26 -101.5 -52t-131.5 -43.5t-182 -17.5zM63 488l-17 70q32 6 51 10q-18 13 -31 34t-13 46q0 36 16 58t41 32t52 10q29 0 53 -8l-8 -72l-20 4t-22 2q-14 0 -24 -8.5t-10 -20.5q0 -20 16.5 -34.5t33.5 -20.5q32 9 59 20l20 -67
q-38 -14 -92.5 -29.5t-104.5 -25.5z" />
    <glyph glyph-name="hahHamzaabove-ar.fina" unicode="&#x681;" horiz-adv-x="739" 
d="M377 -271q-102 0 -184 26.5t-129.5 85.5t-47.5 157q0 73 30.5 134t83.5 107.5t122 77t147 42.5q-45 14 -101.5 26.5t-121.5 12.5q-36 0 -67.5 -4.5t-55.5 -10.5l-21 136q28 9 62 15t70 6q68 0 123 -14.5t103 -33t93.5 -33t92.5 -14.5h40l13 -140q-16 -1 -34 -3t-38 -5
q11 -75 36 -109t64 -43.5t92 -9.5q37 0 53.5 -19.5t16.5 -48.5q0 -31 -20.5 -51.5t-59.5 -20.5q-57 0 -105 9t-85.5 37t-61 84.5t-31.5 152.5q-55 -14 -108 -35t-96.5 -51.5t-69.5 -72t-26 -94.5q0 -67 31.5 -101t84.5 -46t118 -12q55 0 111.5 13t113.5 36l41 -122
q-73 -34 -145 -49t-134 -15zM225 654l-17 70q32 6 51 10q-18 13 -31 34t-13 46q0 36 16 58t41 32t52 10q29 0 53 -8l-8 -72l-20 4t-22 2q-14 0 -24 -8.5t-10 -20.5q0 -20 16.5 -34.5t33.5 -20.5q32 9 59 20l20 -67q-38 -14 -92.5 -29.5t-104.5 -25.5z" />
    <glyph glyph-name="hahTwodotsverticalabove-ar.init" unicode="&#x682;" horiz-adv-x="629" 
d="M0 -5l10 140q108 0 210 24t181 77q-46 27 -101.5 42t-121.5 15q-25 0 -51.5 -2.5t-53.5 -8.5l-20 137q29 7 61 11t58 4q68 0 122 -18t98.5 -42t83 -42t75.5 -18h37l16 -133q-44 -3 -81 -17t-73.5 -35.5t-78 -44.5t-93.5 -43t-120 -33t-158 -13zM174 694q-26 0 -44.5 18
t-18.5 44t18.5 45t44.5 19t44.5 -19t18.5 -45t-18.5 -44t-44.5 -18zM174 528q-26 0 -44.5 18t-18.5 44t18.5 45t44.5 19t44.5 -19t18.5 -45t-18.5 -44t-44.5 -18z" />
    <glyph glyph-name="hahTwodotsverticalabove-ar.medi" unicode="&#x682;" horiz-adv-x="654" 
d="M0 -5l10 140q108 0 210 24t181 77q-46 27 -101.5 42t-121.5 15q-25 0 -51.5 -2.5t-53.5 -8.5l-20 137q29 7 61 11t58 4q68 0 122 -18t98.5 -42t83 -42t75.5 -18h37l16 -133q-22 -1 -42 -6t-39 -12q25 -16 60 -22t81 -6q38 0 54 -19.5t16 -48.5q0 -31 -20.5 -51.5
t-59.5 -20.5q-80 0 -141 23t-98 90q-46 -26 -101.5 -52t-131.5 -43.5t-182 -17.5zM173 704q-26 0 -44.5 18t-18.5 44t18.5 45t44.5 19t44.5 -19t18.5 -45t-18.5 -44t-44.5 -18zM173 538q-26 0 -44.5 18t-18.5 44t18.5 45t44.5 19t44.5 -19t18.5 -45t-18.5 -44t-44.5 -18z
" />
    <glyph glyph-name="hahTwodotsverticalabove-ar.fina" unicode="&#x682;" horiz-adv-x="739" 
d="M377 -271q-102 0 -184 26.5t-129.5 85.5t-47.5 157q0 73 30.5 134t83.5 107.5t122 77t147 42.5q-45 14 -101.5 26.5t-121.5 12.5q-36 0 -67.5 -4.5t-55.5 -10.5l-21 136q28 9 62 15t70 6q68 0 123 -14.5t103 -33t93.5 -33t92.5 -14.5h40l13 -140q-16 -1 -34 -3t-38 -5
q11 -75 36 -109t64 -43.5t92 -9.5q37 0 53.5 -19.5t16.5 -48.5q0 -31 -20.5 -51.5t-59.5 -20.5q-57 0 -105 9t-85.5 37t-61 84.5t-31.5 152.5q-55 -14 -108 -35t-96.5 -51.5t-69.5 -72t-26 -94.5q0 -67 31.5 -101t84.5 -46t118 -12q55 0 111.5 13t113.5 36l41 -122
q-73 -34 -145 -49t-134 -15zM331 800q-26 0 -44.5 18t-18.5 44t18.5 45t44.5 19t44.5 -19t18.5 -45t-18.5 -44t-44.5 -18zM331 634q-26 0 -44.5 18t-18.5 44t18.5 45t44.5 19t44.5 -19t18.5 -45t-18.5 -44t-44.5 -18z" />
    <glyph glyph-name="hahThreedotsabove-ar.init" unicode="&#x685;" horiz-adv-x="629" 
d="M0 -5l10 140q108 0 210 24t181 77q-46 27 -101.5 42t-121.5 15q-25 0 -51.5 -2.5t-53.5 -8.5l-20 137q29 7 61 11t58 4q68 0 122 -18t98.5 -42t83 -42t75.5 -18h37l16 -133q-44 -3 -81 -17t-73.5 -35.5t-78 -44.5t-93.5 -43t-120 -33t-158 -13zM190 659q-26 0 -44 19
t-18 45t18 44t44 18t44 -18t18 -44t-18 -45t-44 -19zM110 527q-26 0 -44 19t-18 45t18 44t44 18t44 -18t18 -44t-18 -45t-44 -19zM265 527q-25 0 -43.5 19t-18.5 45t18.5 44t43.5 18q26 0 44 -18t18 -44t-18 -45t-44 -19z" />
    <glyph glyph-name="hahThreedotsabove-ar.medi" unicode="&#x685;" horiz-adv-x="654" 
d="M0 -5l10 140q108 0 210 24t181 77q-46 27 -101.5 42t-121.5 15q-25 0 -51.5 -2.5t-53.5 -8.5l-20 137q29 7 61 11t58 4q68 0 122 -18t98.5 -42t83 -42t75.5 -18h37l16 -133q-22 -1 -42 -6t-39 -12q25 -16 60 -22t81 -6q38 0 54 -19.5t16 -48.5q0 -31 -20.5 -51.5
t-59.5 -20.5q-80 0 -141 23t-98 90q-46 -26 -101.5 -52t-131.5 -43.5t-182 -17.5zM190 659q-26 0 -44 19t-18 45t18 44t44 18t44 -18t18 -44t-18 -45t-44 -19zM110 527q-26 0 -44 19t-18 45t18 44t44 18t44 -18t18 -44t-18 -45t-44 -19zM265 527q-25 0 -43.5 19t-18.5 45
t18.5 44t43.5 18q26 0 44 -18t18 -44t-18 -45t-44 -19z" />
    <glyph glyph-name="hahThreedotsabove-ar.fina" unicode="&#x685;" horiz-adv-x="739" 
d="M377 -271q-102 0 -184 26.5t-129.5 85.5t-47.5 157q0 73 30.5 134t83.5 107.5t122 77t147 42.5q-45 14 -101.5 26.5t-121.5 12.5q-36 0 -67.5 -4.5t-55.5 -10.5l-21 136q28 9 62 15t70 6q68 0 123 -14.5t103 -33t93.5 -33t92.5 -14.5h40l13 -140q-16 -1 -34 -3t-38 -5
q11 -75 36 -109t64 -43.5t92 -9.5q37 0 53.5 -19.5t16.5 -48.5q0 -31 -20.5 -51.5t-59.5 -20.5q-57 0 -105 9t-85.5 37t-61 84.5t-31.5 152.5q-55 -14 -108 -35t-96.5 -51.5t-69.5 -72t-26 -94.5q0 -67 31.5 -101t84.5 -46t118 -12q55 0 111.5 13t113.5 36l41 -122
q-73 -34 -145 -49t-134 -15zM330 725q-26 0 -44 19t-18 45t18 44t44 18t44 -18t18 -44t-18 -45t-44 -19zM250 593q-26 0 -44 19t-18 45t18 44t44 18t44 -18t18 -44t-18 -45t-44 -19zM405 593q-25 0 -43.5 19t-18.5 45t18.5 44t43.5 18q26 0 44 -18t18 -44t-18 -45t-44 -19z
" />
    <glyph glyph-name="dalRing-ar.fina" unicode="&#x689;" horiz-adv-x="571" 
d="M218 135q67 0 89 17.5t22 39.5q0 24 -13.5 56t-33.5 67t-42 67t-38 56l119 79q65 -87 102.5 -168.5t49.5 -132.5q11 -48 42 -64.5t65 -16.5q38 0 54.5 -19.5t16.5 -48.5q0 -31 -20.5 -51.5t-60.5 -20.5q-94 0 -140 58q-27 -26 -76 -42.5t-116 -16.5q-46 0 -103 11
t-100 35l49 127q37 -17 71.5 -24.5t62.5 -7.5zM225 -141q-42 0 -71 29.5t-29 70.5t29 70.5t71 29.5q41 0 70.5 -29.5t29.5 -70.5t-29.5 -70.5t-70.5 -29.5zM224 -75q16 0 26.5 9.5t10.5 24.5q0 16 -10.5 25.5t-26.5 9.5q-15 0 -25.5 -10t-10.5 -25t10.5 -24.5t25.5 -9.5z
" />
    <glyph glyph-name="dalDotbelow-ar.fina" unicode="&#x68a;" horiz-adv-x="571" 
d="M218 135q67 0 89 17.5t22 39.5q0 24 -13.5 56t-33.5 67t-42 67t-38 56l119 79q65 -87 102.5 -168.5t49.5 -132.5q11 -48 42 -64.5t65 -16.5q38 0 54.5 -19.5t16.5 -48.5q0 -31 -20.5 -51.5t-60.5 -20.5q-94 0 -140 58q-27 -26 -76 -42.5t-116 -16.5q-46 0 -103 11
t-100 35l49 127q37 -17 71.5 -24.5t62.5 -7.5zM236 -235q-29 0 -49.5 20t-20.5 49t20.5 50.5t49.5 21.5q28 0 49 -21.5t21 -50.5t-21 -49t-49 -20z" />
    <glyph glyph-name="dalDotbelowTah-ar.fina" unicode="&#x68b;" horiz-adv-x="571" 
d="M218 135q67 0 89 17.5t22 39.5q0 24 -13.5 56t-33.5 67t-42 67t-38 56l119 79q65 -87 102.5 -168.5t49.5 -132.5q11 -48 42 -64.5t65 -16.5q38 0 54.5 -19.5t16.5 -48.5q0 -31 -20.5 -51.5t-60.5 -20.5q-94 0 -140 58q-27 -26 -76 -42.5t-116 -16.5q-46 0 -103 11
t-100 35l49 127q37 -17 71.5 -24.5t62.5 -7.5zM217 629q-19 0 -43.5 1.5t-46 3.5t-32.5 3l3 63q13 -2 30 -3l16 28l-5 168h65l4 -99q42 30 82 30q38 0 61 -26t23 -63q0 -22 -12 -46.5t-45.5 -42t-99.5 -17.5zM279 757q-22 0 -44.5 -20.5t-36.5 -43.5h12q56 0 76.5 10.5
t20.5 26.5q0 10 -7.5 18.5t-20.5 8.5zM236 -235q-29 0 -49.5 20t-20.5 49t20.5 50.5t49.5 21.5q28 0 49 -21.5t21 -50.5t-21 -49t-49 -20z" />
    <glyph glyph-name="dalThreedotsdown-ar.fina" unicode="&#x68f;" horiz-adv-x="571" 
d="M218 135q67 0 89 17.5t22 39.5q0 24 -13.5 56t-33.5 67t-42 67t-38 56l119 79q65 -87 102.5 -168.5t49.5 -132.5q11 -48 42 -64.5t65 -16.5q38 0 54.5 -19.5t16.5 -48.5q0 -31 -20.5 -51.5t-60.5 -20.5q-94 0 -140 58q-27 -26 -76 -42.5t-116 -16.5q-46 0 -103 11
t-100 35l49 127q37 -17 71.5 -24.5t62.5 -7.5zM147 724q-26 0 -44.5 18t-18.5 44t18.5 45t44.5 19t44 -19t18 -45t-18 -44t-44 -18zM303 724q-26 0 -44.5 18t-18.5 44t18.5 45t44.5 19t44 -19t18 -45t-18 -44t-44 -18zM223 592q-26 0 -44.5 18t-18.5 44t18.5 45t44.5 19
t44 -19t18 -45t-18 -44t-44 -18z" />
    <glyph glyph-name="dalFourdots-ar.fina" unicode="&#x690;" horiz-adv-x="571" 
d="M218 135q67 0 89 17.5t22 39.5q0 24 -13.5 56t-33.5 67t-42 67t-38 56l119 79q65 -87 102.5 -168.5t49.5 -132.5q11 -48 42 -64.5t65 -16.5q38 0 54.5 -19.5t16.5 -48.5q0 -31 -20.5 -51.5t-60.5 -20.5q-94 0 -140 58q-27 -26 -76 -42.5t-116 -16.5q-46 0 -103 11
t-100 35l49 127q37 -17 71.5 -24.5t62.5 -7.5zM161 730q-24 0 -40.5 16.5t-16.5 40.5t16.5 41.5t40.5 17.5q23 0 40 -17.5t17 -41.5t-17 -40.5t-40 -16.5zM299 730q-24 0 -40.5 16.5t-16.5 40.5t16.5 41.5t40.5 17.5q23 0 40 -17.5t17 -41.5t-17 -40.5t-40 -16.5zM161 591
q-24 0 -40.5 16.5t-16.5 40.5t16.5 41.5t40.5 17.5q23 0 40 -17.5t17 -41.5t-17 -40.5t-40 -16.5zM299 591q-24 0 -40.5 16.5t-16.5 40.5t16.5 41.5t40.5 17.5q23 0 40 -17.5t17 -41.5t-17 -40.5t-40 -16.5z" />
    <glyph glyph-name="rehv-ar.fina" unicode="&#x692;" horiz-adv-x="450" 
d="M16 -231l-51 124q71 25 126 58.5t86.5 77t31.5 97.5q0 42 -19 92t-46 102l131 63q17 -31 31 -66.5t23 -63.5t12 -38q14 -48 38.5 -64t79.5 -16q37 0 54 -19.5t17 -48.5q0 -31 -21 -51.5t-60 -20.5q-76 0 -116 41q-17 -62 -64.5 -114.5t-113.5 -91.5t-139 -61zM180 425
q-10 20 -27 52.5t-34.5 65.5t-31.5 54l58 31q8 -11 20 -32t26 -46t25 -46q11 25 22.5 51.5t21 47t14.5 28.5l58 -24q-5 -10 -15.5 -32.5t-23 -50t-24 -52.5t-17.5 -41z" />
    <glyph glyph-name="rehRing-ar.fina" unicode="&#x693;" horiz-adv-x="450" 
d="M16 -231l-51 124q71 25 126 58.5t86.5 77t31.5 97.5q0 42 -19 92t-46 102l131 63q17 -31 31 -66.5t23 -63.5t12 -38q14 -48 38.5 -64t79.5 -16q37 0 54 -19.5t17 -48.5q0 -31 -21 -51.5t-60 -20.5q-76 0 -116 41q-17 -62 -64.5 -114.5t-113.5 -91.5t-139 -61zM283 -217
q-42 0 -71 29.5t-29 70.5t29 70.5t71 29.5q41 0 70.5 -29.5t29.5 -70.5t-29.5 -70.5t-70.5 -29.5zM282 -151q16 0 26.5 9.5t10.5 24.5q0 16 -10.5 25.5t-26.5 9.5q-15 0 -25.5 -10t-10.5 -25t10.5 -24.5t25.5 -9.5z" />
    <glyph glyph-name="rehDotbelow-ar.fina" unicode="&#x694;" horiz-adv-x="450" 
d="M16 -231l-51 124q71 25 126 58.5t86.5 77t31.5 97.5q0 42 -19 92t-46 102l131 63q17 -31 31 -66.5t23 -63.5t12 -38q14 -48 38.5 -64t79.5 -16q37 0 54 -19.5t17 -48.5q0 -31 -21 -51.5t-60 -20.5q-76 0 -116 41q-17 -62 -64.5 -114.5t-113.5 -91.5t-139 -61zM293 -270
q-29 0 -49.5 20t-20.5 49t20.5 50.5t49.5 21.5q28 0 49 -21.5t21 -50.5t-21 -49t-49 -20z" />
    <glyph glyph-name="rehVbelow-ar.fina" unicode="&#x695;" horiz-adv-x="450" 
d="M16 -231l-51 124q71 25 126 58.5t86.5 77t31.5 97.5q0 42 -19 92t-46 102l131 63q17 -31 31 -66.5t23 -63.5t12 -38q14 -48 38.5 -64t79.5 -16q37 0 54 -19.5t17 -48.5q0 -31 -21 -51.5t-60 -20.5q-76 0 -116 41q-17 -62 -64.5 -114.5t-113.5 -91.5t-139 -61z
M43.3984 3.20312q-7.99902 16 -21.5996 40.7998q-13.5996 24.7988 -27.5996 49.5986q-13.999 24.7998 -25.1992 41.5996l46.3994 24.7998q6.39941 -8.7998 16 -24.7998q9.59961 -16 20.7998 -34.3994q11.1992 -18.3994 19.999 -35.1992q8.7998 19.1992 18 39.1992
t16.7998 35.5996t11.5996 21.999l46.3994 -19.1992q-4 -8 -12.3994 -25.2002q-8.40039 -17.1992 -18.4004 -37.999t-19.1992 -39.999q-9.2002 -19.2002 -14 -32z" />
    <glyph glyph-name="rehDotbelowdotabove-ar.fina" unicode="&#x696;" horiz-adv-x="450" 
d="M16 -231l-51 124q71 25 126 58.5t86.5 77t31.5 97.5q0 42 -19 92t-46 102l131 63q17 -31 31 -66.5t23 -63.5t12 -38q14 -48 38.5 -64t79.5 -16q37 0 54 -19.5t17 -48.5q0 -31 -21 -51.5t-60 -20.5q-76 0 -116 41q-17 -62 -64.5 -114.5t-113.5 -91.5t-139 -61zM89 2
q-31 0 -52.5 21t-21.5 52t21.5 53t52.5 22q30 0 51.5 -22t21.5 -53t-21.5 -52t-51.5 -21zM293 -270q-29 0 -49.5 20t-20.5 49t20.5 50.5t49.5 21.5q28 0 49 -21.5t21 -50.5t-21 -49t-49 -20z" />
    <glyph glyph-name="rehTwodots-ar.fina" unicode="&#x697;" horiz-adv-x="450" 
d="M16 -231l-51 124q71 25 126 58.5t86.5 77t31.5 97.5q0 42 -19 92t-46 102l131 63q17 -31 31 -66.5t23 -63.5t12 -38q14 -48 38.5 -64t79.5 -16q37 0 54 -19.5t17 -48.5q0 -31 -21 -51.5t-60 -20.5q-76 0 -116 41q-17 -62 -64.5 -114.5t-113.5 -91.5t-139 -61zM134 484
q-29 0 -49.5 20.5t-20.5 48.5q0 29 20.5 50t49.5 21q28 0 48 -21t20 -50q0 -28 -20 -48.5t-48 -20.5zM307 483q-29 0 -49.5 20t-20.5 49t20.5 50t49.5 21q28 0 48 -21t20 -50t-20 -49t-48 -20z" />
    <glyph glyph-name="rehFourdots-ar.fina" unicode="&#x699;" horiz-adv-x="450" 
d="M16 -231l-51 124q71 25 126 58.5t86.5 77t31.5 97.5q0 42 -19 92t-46 102l131 63q17 -31 31 -66.5t23 -63.5t12 -38q14 -48 38.5 -64t79.5 -16q37 0 54 -19.5t17 -48.5q0 -31 -21 -51.5t-60 -20.5q-76 0 -116 41q-17 -62 -64.5 -114.5t-113.5 -91.5t-139 -61zM157 622
q-24 0 -40.5 16.5t-16.5 40.5t16.5 41.5t40.5 17.5q23 0 40 -17.5t17 -41.5t-17 -40.5t-40 -16.5zM295 622q-24 0 -40.5 16.5t-16.5 40.5t16.5 41.5t40.5 17.5q23 0 40 -17.5t17 -41.5t-17 -40.5t-40 -16.5zM157 483q-24 0 -40.5 16.5t-16.5 40.5t16.5 41.5t40.5 17.5
q23 0 40 -17.5t17 -41.5t-17 -40.5t-40 -16.5zM295 483q-24 0 -40.5 16.5t-16.5 40.5t16.5 41.5t40.5 17.5q23 0 40 -17.5t17 -41.5t-17 -40.5t-40 -16.5z" />
    <glyph glyph-name="seenDotbelowDotabove-ar.init" unicode="&#x69a;" horiz-adv-x="950" 
d="M0 -5l10 140q33 0 54 5.5t34.5 25t24 59t23.5 107.5l130 -24q-4 -22 -10.5 -55t-6.5 -57q0 -28 18 -44.5t68 -16.5q25 0 43.5 5.5t32 25t24 61t20.5 112.5l132 -21q-6 -35 -12 -74t-6 -59q0 -19 18.5 -34.5t75.5 -15.5q40 0 63.5 16t23.5 56q0 37 -17 97t-40 126l141 42
q16 -43 28.5 -91.5t20 -94.5t7.5 -79q0 -103 -60.5 -157.5t-157.5 -54.5q-70 0 -109 16.5t-56 59.5q-20 -35 -43.5 -51t-55.5 -20.5t-76 -4.5q-27 0 -54 4.5t-51.5 19t-42.5 46.5q-34 -46 -83 -58t-111 -12zM472 -235q-29 0 -49.5 20t-20.5 49t20.5 50.5t49.5 21.5
q28 0 49 -21.5t21 -50.5t-21 -49t-49 -20zM516 482q-31 0 -52.5 21t-21.5 52t21.5 53t52.5 22q30 0 51.5 -22t21.5 -53t-21.5 -52t-51.5 -21z" />
    <glyph glyph-name="seenDotbelowDotabove-ar.medi" unicode="&#x69a;" horiz-adv-x="1019" 
d="M0 -5l10 140q33 0 54 5.5t34.5 25t24 59t23.5 107.5l130 -24q-4 -22 -10.5 -55t-6.5 -57q0 -28 17.5 -44.5t67.5 -16.5q26 0 44.5 5.5t32 25t24 61t20.5 112.5l132 -21q-6 -35 -12 -74t-6 -59t18.5 -35t74.5 -15q88 0 88 79q0 34 -2.5 77.5t-10.5 108.5l129 10
q7 -86 16 -140t24.5 -83.5t42 -40.5t69.5 -11q38 0 54.5 -19.5t16.5 -48.5q0 -31 -20.5 -51.5t-60.5 -20.5q-33 0 -68 7t-65.5 29t-49.5 66q-22 -61 -64 -81.5t-109 -20.5q-53 0 -92 16.5t-55 56.5q-19 -32 -43 -47.5t-57 -20.5t-78 -5q-27 0 -53.5 4t-50 18.5t-39.5 46.5
q-34 -45 -83 -57t-111 -12zM455 -235q-29 0 -49.5 20t-20.5 49t20.5 50.5t49.5 21.5q28 0 49 -21.5t21 -50.5t-21 -49t-49 -20zM506 482q-31 0 -52.5 21t-21.5 52t21.5 53t52.5 22q30 0 51.5 -22t21.5 -53t-21.5 -52t-51.5 -21z" />
    <glyph glyph-name="seenDotbelowDotabove-ar.fina" unicode="&#x69a;" horiz-adv-x="1439" 
d="M343 -232q-96 0 -167 29.5t-110.5 87t-39.5 143.5q0 34 9.5 87t42.5 126l123 -43q-17 -47 -26 -80.5t-9 -65.5q0 -40 18 -72.5t58 -52t105 -19.5q80 0 125 23t63 62t18 87q0 41 -14.5 99t-37.5 128l140 36q14 -58 22.5 -90t13.5 -48q15 -45 40 -58.5t59 -12.5q19 0 35 6
t29.5 25.5t24.5 60.5t20 113l132 -21q-6 -35 -12 -74t-6 -60q0 -20 18.5 -34.5t73.5 -14.5q89 0 89 79q0 34 -2.5 77.5t-10.5 108.5l129 10q8 -93 18 -148t26.5 -82.5t42.5 -36t65 -8.5q38 0 54.5 -19.5t16.5 -48.5q0 -31 -21 -51.5t-60 -20.5q-52 0 -98 16.5t-75 63.5
q-18 -34 -46 -51t-60.5 -23t-64.5 -6q-56 0 -97.5 18.5t-59.5 52.5q-26 -45 -64.5 -58t-77.5 -13q-32 0 -61 8t-50 26q-13 -124 -103.5 -192.5t-237.5 -68.5zM935 -230q-29 0 -49.5 20t-20.5 49t20.5 50.5t49.5 21.5q28 0 49 -21.5t21 -50.5t-21 -49t-49 -20zM882 482
q-31 0 -52.5 21t-21.5 52t21.5 53t52.5 22q30 0 51.5 -22t21.5 -53t-21.5 -52t-51.5 -21z" />
    <glyph glyph-name="seenThreedotsbelow-ar.init" unicode="&#x69b;" horiz-adv-x="950" 
d="M0 -5l10 140q33 0 54 5.5t34.5 25t24 59t23.5 107.5l130 -24q-4 -22 -10.5 -55t-6.5 -57q0 -28 18 -44.5t68 -16.5q25 0 43.5 5.5t32 25t24 61t20.5 112.5l132 -21q-6 -35 -12 -74t-6 -59q0 -19 18.5 -34.5t75.5 -15.5q40 0 63.5 16t23.5 56q0 37 -17 97t-40 126l141 42
q16 -43 28.5 -91.5t20 -94.5t7.5 -79q0 -103 -60.5 -157.5t-157.5 -54.5q-70 0 -109 16.5t-56 59.5q-20 -35 -43.5 -51t-55.5 -20.5t-76 -4.5q-27 0 -54 4.5t-51.5 19t-42.5 46.5q-34 -46 -83 -58t-111 -12zM416 -142q-20 0 -34.5 14.5t-14.5 34.5t14.5 35t34.5 15
q21 0 35.5 -15t14.5 -35t-14.5 -34.5t-35.5 -14.5zM539 -142q-21 0 -35.5 14.5t-14.5 34.5t14.5 35t35.5 15q20 0 34.5 -15t14.5 -35t-14.5 -34.5t-34.5 -14.5zM476 -246q-21 0 -35 14t-14 35q0 20 14 35t35 15q20 0 35 -15t15 -35q0 -21 -15 -35t-35 -14z" />
    <glyph glyph-name="seenThreedotsbelow-ar.medi" unicode="&#x69b;" horiz-adv-x="1019" 
d="M0 -5l10 140q33 0 54 5.5t34.5 25t24 59t23.5 107.5l130 -24q-4 -22 -10.5 -55t-6.5 -57q0 -28 17.5 -44.5t67.5 -16.5q26 0 44.5 5.5t32 25t24 61t20.5 112.5l132 -21q-6 -35 -12 -74t-6 -59t18.5 -35t74.5 -15q88 0 88 79q0 34 -2.5 77.5t-10.5 108.5l129 10
q7 -86 16 -140t24.5 -83.5t42 -40.5t69.5 -11q38 0 54.5 -19.5t16.5 -48.5q0 -31 -20.5 -51.5t-60.5 -20.5q-33 0 -68 7t-65.5 29t-49.5 66q-22 -61 -64 -81.5t-109 -20.5q-53 0 -92 16.5t-55 56.5q-19 -32 -43 -47.5t-57 -20.5t-78 -5q-27 0 -53.5 4t-50 18.5t-39.5 46.5
q-34 -45 -83 -57t-111 -12zM399 -142q-20 0 -34.5 14.5t-14.5 34.5t14.5 35t34.5 15q21 0 35.5 -15t14.5 -35t-14.5 -34.5t-35.5 -14.5zM522 -142q-21 0 -35.5 14.5t-14.5 34.5t14.5 35t35.5 15q20 0 34.5 -15t14.5 -35t-14.5 -34.5t-34.5 -14.5zM459 -246q-21 0 -35 14
t-14 35q0 20 14 35t35 15q20 0 35 -15t15 -35q0 -21 -15 -35t-35 -14z" />
    <glyph glyph-name="seenThreedotsbelow-ar.fina" unicode="&#x69b;" horiz-adv-x="1439" 
d="M343 -232q-96 0 -167 29.5t-110.5 87t-39.5 143.5q0 34 9.5 87t42.5 126l123 -43q-17 -47 -26 -80.5t-9 -65.5q0 -40 18 -72.5t58 -52t105 -19.5q80 0 125 23t63 62t18 87q0 41 -14.5 99t-37.5 128l140 36q14 -58 22.5 -90t13.5 -48q15 -45 40 -58.5t59 -12.5q19 0 35 6
t29.5 25.5t24.5 60.5t20 113l132 -21q-6 -35 -12 -74t-6 -60q0 -20 18.5 -34.5t73.5 -14.5q89 0 89 79q0 34 -2.5 77.5t-10.5 108.5l129 10q8 -93 18 -148t26.5 -82.5t42.5 -36t65 -8.5q38 0 54.5 -19.5t16.5 -48.5q0 -31 -21 -51.5t-60 -20.5q-52 0 -98 16.5t-75 63.5
q-18 -34 -46 -51t-60.5 -23t-64.5 -6q-56 0 -97.5 18.5t-59.5 52.5q-26 -45 -64.5 -58t-77.5 -13q-32 0 -61 8t-50 26q-13 -124 -103.5 -192.5t-237.5 -68.5zM866 -157q-20 0 -34.5 14.5t-14.5 34.5t14.5 35t34.5 15q21 0 35.5 -15t14.5 -35t-14.5 -34.5t-35.5 -14.5z
M989 -157q-21 0 -35.5 14.5t-14.5 34.5t14.5 35t35.5 15q20 0 34.5 -15t14.5 -35t-14.5 -34.5t-34.5 -14.5zM926 -261q-21 0 -35 14t-14 35q0 20 14 35t35 15q20 0 35 -15t15 -35q0 -21 -15 -35t-35 -14z" />
    <glyph glyph-name="sadTwodotsbelow-ar.init" unicode="&#x69d;" horiz-adv-x="974" 
d="M518 -18q-112 0 -179 12t-103.5 33t-55.5 49q-37 -53 -84 -67t-96 -14l10 140q41 0 60.5 18.5t32 61.5t31.5 117l127 -31q-21 -81 -21 -105q0 -23 12.5 -38t52.5 -24q39 60 87 114.5t102 96.5t112 66t118 24q100 0 155.5 -57t55.5 -147q0 -73 -41.5 -129t-133 -88
t-242.5 -32zM710 295q-44 0 -88.5 -25t-86 -65t-74.5 -83h32q115 0 181 11t93.5 33t27.5 55q0 28 -20 51t-65 23zM609 -250q-29 0 -49.5 20t-20.5 49t20.5 50t49.5 21q28 0 48 -21t20 -50t-20 -49t-48 -20zM436 -250q-29 0 -49.5 20t-20.5 49t20.5 50t49.5 21q28 0 48 -21
t20 -50t-20 -49t-48 -20z" />
    <glyph glyph-name="sadTwodotsbelow-ar.medi" unicode="&#x69d;" horiz-adv-x="1004" 
d="M518 -18q-112 0 -179 12t-103.5 33t-55.5 49q-37 -53 -84 -67t-96 -14l10 140q41 0 60.5 18.5t32 61.5t31.5 117l127 -31q-21 -81 -21 -105q0 -23 12.5 -38t52.5 -24q39 60 87 114.5t102 96.5t112 66t118 24q100 0 155.5 -57t55.5 -147q0 -73 -41.5 -129t-133 -88
t-242.5 -32zM710 295q-44 0 -88.5 -25t-86 -65t-74.5 -83h32q115 0 181 11t93.5 33t27.5 55q0 28 -20 51t-65 23zM1003 -5q-77 0 -143 20.5t-101 50.5l90 97q36 -15 74 -21.5t90 -6.5q37 0 54 -19.5t17 -48.5q0 -31 -21 -51.5t-60 -20.5zM609 -250q-29 0 -49.5 20t-20.5 49
t20.5 50t49.5 21q28 0 48 -21t20 -50t-20 -49t-48 -20zM436 -250q-29 0 -49.5 20t-20.5 49t20.5 50t49.5 21q28 0 48 -21t20 -50t-20 -49t-48 -20z" />
    <glyph glyph-name="sadTwodotsbelow-ar.fina" unicode="&#x69d;" horiz-adv-x="1442" 
d="M342 -231q-89 0 -160.5 29t-113.5 86.5t-42 143.5q0 34 9.5 87t42.5 126l123 -43q-17 -47 -26 -80.5t-9 -65.5q0 -60 47.5 -101.5t132.5 -41.5q108 0 157.5 43.5t49.5 125.5q0 43 -16 101t-36 128l140 36q14 -58 22 -90.5t14 -47.5q9 -22 25.5 -37.5t52.5 -25.5
q37 57 83.5 110t100.5 95.5t112.5 67.5t119.5 25q67 0 114 -26.5t72.5 -73t25.5 -104.5q0 -73 -41 -129t-132.5 -88t-244.5 -32q-81 0 -154.5 12.5t-120.5 38.5q-9 -84 -54 -144t-120 -92.5t-174 -32.5zM1158 300q-46 0 -93 -27t-89 -67t-73 -78q23 -1 50 -1
q109 0 172.5 12.5t90.5 34.5t27 52q0 26 -20 50t-65 24zM1441 -5q-77 0 -143 20.5t-101 50.5l90 97q36 -15 74 -21.5t90 -6.5q37 0 54 -19.5t17 -48.5q0 -31 -21 -51.5t-60 -20.5zM1044 -245q-29 0 -49.5 20t-20.5 49t20.5 50t49.5 21q28 0 48 -21t20 -50t-20 -49t-48 -20z
M871 -245q-29 0 -49.5 20t-20.5 49t20.5 50t49.5 21q28 0 48 -21t20 -50t-20 -49t-48 -20z" />
    <glyph glyph-name="sadThreedots-ar.init" unicode="&#x69e;" horiz-adv-x="974" 
d="M518 -18q-112 0 -179 12t-103.5 33t-55.5 49q-37 -53 -84 -67t-96 -14l10 140q41 0 60.5 18.5t32 61.5t31.5 117l127 -31q-21 -81 -21 -105q0 -23 12.5 -38t52.5 -24q39 60 87 114.5t102 96.5t112 66t118 24q100 0 155.5 -57t55.5 -147q0 -73 -41.5 -129t-133 -88
t-242.5 -32zM710 295q-44 0 -88.5 -25t-86 -65t-74.5 -83h32q115 0 181 11t93.5 33t27.5 55q0 28 -20 51t-65 23zM702 660q-26 0 -44 19t-18 45t18 44t44 18t44 -18t18 -44t-18 -45t-44 -19zM622 528q-26 0 -44 19t-18 45t18 44t44 18t44 -18t18 -44t-18 -45t-44 -19z
M777 528q-25 0 -43.5 19t-18.5 45t18.5 44t43.5 18q26 0 44 -18t18 -44t-18 -45t-44 -19z" />
    <glyph glyph-name="sadThreedots-ar.medi" unicode="&#x69e;" horiz-adv-x="1004" 
d="M518 -18q-112 0 -179 12t-103.5 33t-55.5 49q-37 -53 -84 -67t-96 -14l10 140q41 0 60.5 18.5t32 61.5t31.5 117l127 -31q-21 -81 -21 -105q0 -23 12.5 -38t52.5 -24q39 60 87 114.5t102 96.5t112 66t118 24q100 0 155.5 -57t55.5 -147q0 -73 -41.5 -129t-133 -88
t-242.5 -32zM710 295q-44 0 -88.5 -25t-86 -65t-74.5 -83h32q115 0 181 11t93.5 33t27.5 55q0 28 -20 51t-65 23zM1003 -5q-77 0 -143 20.5t-101 50.5l90 97q36 -15 74 -21.5t90 -6.5q37 0 54 -19.5t17 -48.5q0 -31 -21 -51.5t-60 -20.5zM702 660q-26 0 -44 19t-18 45t18 44
t44 18t44 -18t18 -44t-18 -45t-44 -19zM622 528q-26 0 -44 19t-18 45t18 44t44 18t44 -18t18 -44t-18 -45t-44 -19zM777 528q-25 0 -43.5 19t-18.5 45t18.5 44t43.5 18q26 0 44 -18t18 -44t-18 -45t-44 -19z" />
    <glyph glyph-name="sadThreedots-ar.fina" unicode="&#x69e;" horiz-adv-x="1442" 
d="M342 -231q-89 0 -160.5 29t-113.5 86.5t-42 143.5q0 34 9.5 87t42.5 126l123 -43q-17 -47 -26 -80.5t-9 -65.5q0 -60 47.5 -101.5t132.5 -41.5q108 0 157.5 43.5t49.5 125.5q0 43 -16 101t-36 128l140 36q14 -58 22 -90.5t14 -47.5q9 -22 25.5 -37.5t52.5 -25.5
q37 57 83.5 110t100.5 95.5t112.5 67.5t119.5 25q67 0 114 -26.5t72.5 -73t25.5 -104.5q0 -73 -41 -129t-132.5 -88t-244.5 -32q-81 0 -154.5 12.5t-120.5 38.5q-9 -84 -54 -144t-120 -92.5t-174 -32.5zM1158 300q-46 0 -93 -27t-89 -67t-73 -78q23 -1 50 -1
q109 0 172.5 12.5t90.5 34.5t27 52q0 26 -20 50t-65 24zM1441 -5q-77 0 -143 20.5t-101 50.5l90 97q36 -15 74 -21.5t90 -6.5q37 0 54 -19.5t17 -48.5q0 -31 -21 -51.5t-60 -20.5zM1142 662q-26 0 -44 19t-18 45t18 44t44 18t44 -18t18 -44t-18 -45t-44 -19zM1062 530
q-26 0 -44 19t-18 45t18 44t44 18t44 -18t18 -44t-18 -45t-44 -19zM1217 530q-25 0 -43.5 19t-18.5 45t18.5 44t43.5 18q26 0 44 -18t18 -44t-18 -45t-44 -19z" />
    <glyph glyph-name="tahThreedots-ar.init" unicode="&#x69f;" horiz-adv-x="737" 
d="M0 -5l10 140h49q20 31 42 60l-18 537h140l15 -389q57 48 120.5 77t128.5 29q66 0 113 -27t72.5 -74.5t25.5 -108.5q0 -65 -36.5 -117t-123.5 -86q-37 -14 -80 -23t-101 -13.5t-139 -4.5h-218zM475 309q-45 0 -89.5 -25t-85 -64.5t-74.5 -84.5h8q126 0 196.5 12.5t99 34.5
t28.5 51t-20 52.5t-63 23.5zM465 674q-26 0 -44 19t-18 45t18 44t44 18t44 -18t18 -44t-18 -45t-44 -19zM385 542q-26 0 -44 19t-18 45t18 44t44 18t44 -18t18 -44t-18 -45t-44 -19zM540 542q-25 0 -43.5 19t-18.5 45t18.5 44t43.5 18q26 0 44 -18t18 -44t-18 -45t-44 -19z
" />
    <glyph glyph-name="tahThreedots-ar.medi" unicode="&#x69f;" horiz-adv-x="762" 
d="M0 -5l10 140h49q20 31 42 60l-18 537h140l15 -389q57 48 120.5 77t128.5 29q66 0 113 -27t72.5 -74.5t25.5 -108.5q0 -65 -36.5 -117t-123.5 -86q-37 -14 -80 -23t-101 -13.5t-139 -4.5h-218zM475 309q-45 0 -89.5 -25t-85 -64.5t-74.5 -84.5h8q126 0 196.5 12.5t99 34.5
t28.5 51t-20 52.5t-63 23.5zM761 -5q-77 0 -143 20.5t-101 50.5l90 97q36 -15 74 -21.5t90 -6.5q37 0 54 -19.5t17 -48.5q0 -31 -21 -51.5t-60 -20.5zM465 674q-26 0 -44 19t-18 45t18 44t44 18t44 -18t18 -44t-18 -45t-44 -19zM385 542q-26 0 -44 19t-18 45t18 44t44 18
t44 -18t18 -44t-18 -45t-44 -19zM540 542q-25 0 -43.5 19t-18.5 45t18.5 44t43.5 18q26 0 44 -18t18 -44t-18 -45t-44 -19z" />
    <glyph glyph-name="tahThreedots-ar.fina" unicode="&#x69f;" horiz-adv-x="861" 
d="M387 -13q-104 0 -198.5 5t-168.5 14l16 138q37 -4 70.5 -7t64.5 -4q19 28 39 55l-18 544h140l15 -397q57 48 119.5 76t127.5 28q64 0 111 -26t73.5 -72t26.5 -106q0 -73 -41 -128.5t-132.5 -87.5t-244.5 -32zM581 299q-46 0 -90.5 -26t-84 -65.5t-71.5 -80.5h40
q109 0 172.5 12.5t90.5 34.5t27 50t-21 51.5t-63 23.5zM860 -5q-77 0 -143 20.5t-101 50.5l90 97q36 -15 74 -21.5t90 -6.5q37 0 54 -19.5t17 -48.5q0 -31 -21 -51.5t-60 -20.5zM582 664q-26 0 -44 19t-18 45t18 44t44 18t44 -18t18 -44t-18 -45t-44 -19zM502 532
q-26 0 -44 19t-18 45t18 44t44 18t44 -18t18 -44t-18 -45t-44 -19zM657 532q-25 0 -43.5 19t-18.5 45t18.5 44t43.5 18q26 0 44 -18t18 -44t-18 -45t-44 -19z" />
    <glyph glyph-name="ainThreedots-ar.init" unicode="&#x6a0;" horiz-adv-x="557" 
d="M0 -5l10 140q47 0 72.5 1t38.5 2.5t22 2.5q-11 10 -26.5 29t-28 49t-12.5 72q0 61 31.5 107t85.5 72t121 26q60 0 115 -16l-22 -133q-20 5 -42.5 8t-38.5 3q-50 0 -79.5 -23t-29.5 -61q0 -29 16.5 -50.5t37.5 -34.5t34 -17q33 10 56 16.5t48 16t66 27.5l45 -132
q-84 -41 -164 -64t-166 -32t-190 -9zM282 721q-26 0 -44 19t-18 45t18 44t44 18t44 -18t18 -44t-18 -45t-44 -19zM202 589q-26 0 -44 19t-18 45t18 44t44 18t44 -18t18 -44t-18 -45t-44 -19zM357 589q-25 0 -43.5 19t-18.5 45t18.5 44t43.5 18q26 0 44 -18t18 -44t-18 -45
t-44 -19z" />
    <glyph glyph-name="ainThreedots-ar.medi" unicode="&#x6a0;" horiz-adv-x="552" 
d="M-4 -5l10 140q48 0 89.5 4.5t76.5 12.5q-21 24 -44 46t-41 37q-5 4 -11.5 21.5t-11.5 36.5t-5 28q0 23 21.5 49t58 48.5t81 37t90.5 14.5q92 0 139.5 -40t47.5 -105q0 -45 -18.5 -90t-55.5 -85q31 -7 66 -11t72 -4t54 -19.5t17 -48.5q0 -31 -21 -51.5t-60 -20.5
q-85 0 -150 14.5t-116 41.5q-57 -26 -129.5 -41t-159.5 -15zM189 323q25 -20 56.5 -51t58.5 -63q55 41 55 89q0 20 -15 35.5t-54 15.5q-20 0 -49 -6.5t-52 -19.5zM306 695q-26 0 -44 19t-18 45t18 44t44 18t44 -18t18 -44t-18 -45t-44 -19zM226 563q-26 0 -44 19t-18 45
t18 44t44 18t44 -18t18 -44t-18 -45t-44 -19zM381 563q-25 0 -43.5 19t-18.5 45t18.5 44t43.5 18q26 0 44 -18t18 -44t-18 -45t-44 -19z" />
    <glyph glyph-name="ainThreedots-ar.fina" unicode="&#x6a0;" horiz-adv-x="632" 
d="M338 -271q-88 0 -160.5 22t-115 71.5t-42.5 134.5q0 67 30 116t77 87t96 69q-23 29 -53 60t-51 46q-3 3 -10 20.5t-12.5 37t-5.5 28.5q0 20 19 45.5t53.5 49t80.5 39t100 15.5q98 0 141.5 -42t43.5 -106q0 -61 -28.5 -108.5t-70.5 -85.5q60 -44 109 -68.5t103 -24.5
q38 0 54 -19.5t16 -48.5q0 -31 -21 -51.5t-59 -20.5q-68 0 -121 17.5t-100.5 50t-97.5 76.5q-40 -27 -74.5 -54t-55.5 -55.5t-21 -61.5q0 -32 16.5 -51.5t42.5 -30t57.5 -14t61.5 -3.5q46 0 98.5 11t111.5 36l42 -120q-57 -31 -124.5 -49t-129.5 -18zM221 423
q32 -27 63.5 -58.5t52.5 -57.5q24 21 39 43t15 48q0 20 -15 35.5t-53 15.5q-25 0 -52.5 -7.5t-49.5 -18.5zM352 795q-26 0 -44 19t-18 45t18 44t44 18t44 -18t18 -44t-18 -45t-44 -19zM272 663q-26 0 -44 19t-18 45t18 44t44 18t44 -18t18 -44t-18 -45t-44 -19zM427 663
q-25 0 -43.5 19t-18.5 45t18.5 44t43.5 18q26 0 44 -18t18 -44t-18 -45t-44 -19z" />
    <glyph glyph-name="dotlessfeh-ar.init" unicode="&#x6a1;" horiz-adv-x="505" 
d="M0 -5l10 139q82 0 133 1t79.5 4.5t42.5 9t24 12.5q8 6 14.5 15t11.5 22q-41 -15 -85 -15q-80 0 -126 33.5t-46 118.5q0 44 15 87.5t43 79t66 57t84 21.5q68 0 112.5 -39.5t66 -106t21.5 -147.5q0 -71 -21 -123.5t-50 -82.5q-24 -25 -55 -42t-75.5 -26.5t-109 -13.5
t-155.5 -4zM196 362q0 -43 67 -43q32 0 64 10q-5 55 -23 84t-46 29q-24 0 -43 -23t-19 -57z" />
    <glyph glyph-name="dotlessfeh-ar.medi" unicode="&#x6a1;" horiz-adv-x="529" 
d="M0 -5l10 139q30 -1 56.5 0.5t49.5 3.5q-22 26 -36.5 58.5t-14.5 73.5q0 62 31 108.5t78.5 72.5t97.5 26q60 0 104 -28t68.5 -73.5t24.5 -97.5q0 -42 -14 -77t-37 -62q30 -2 60.5 -3t59.5 -1q38 0 54.5 -19.5t16.5 -48.5q0 -31 -21 -51.5t-60 -20.5q-74 0 -144 10t-122 29
q-37 -16 -106 -28t-156 -11zM203 260q0 -25 14 -47t39 -41q36 16 55.5 40t19.5 52q0 27 -16.5 53t-45.5 26q-28 0 -47 -24t-19 -59z" />
    <glyph glyph-name="dotlessfeh-ar.fina" unicode="&#x6a1;" horiz-adv-x="1115" 
d="M424 -21q-144 0 -230 29t-124 80t-38 116q0 47 12 96.5t23 87.5l125 -29q-7 -28 -13.5 -59.5t-6.5 -55.5q0 -38 26.5 -66t87.5 -43.5t164 -15.5q72 0 137 5t115 13q-21 24 -36 53.5t-15 68.5q0 46 18.5 85.5t49 69.5t67 46.5t72.5 16.5q58 0 102 -30.5t69.5 -78.5
t25.5 -101q0 -39 -13 -71t-34 -57q29 -2 58.5 -3t57.5 -1q38 0 54.5 -19.5t16.5 -48.5q0 -31 -21 -51.5t-60 -20.5q-74 0 -144 10t-122 29q-26 -11 -72 -21t-104 -17.5t-122 -12t-126 -4.5zM789 256q0 -20 14 -43t38 -42q36 17 56 41t20 50q0 18 -8.5 37t-22.5 31.5
t-31 12.5q-25 0 -45.5 -26t-20.5 -61z" />
    <glyph glyph-name="fehDotbelow-ar.init" unicode="&#x6a2;" horiz-adv-x="505" 
d="M0 -5l10 139q82 0 133 1t79.5 4.5t42.5 9t24 12.5q8 6 14.5 15t11.5 22q-41 -15 -85 -15q-80 0 -126 33.5t-46 118.5q0 44 15 87.5t43 79t66 57t84 21.5q68 0 112.5 -39.5t66 -106t21.5 -147.5q0 -71 -21 -123.5t-50 -82.5q-24 -25 -55 -42t-75.5 -26.5t-109 -13.5
t-155.5 -4zM196 362q0 -43 67 -43q32 0 64 10q-5 55 -23 84t-46 29q-24 0 -43 -23t-19 -57zM220 -247q-29 0 -49.5 20t-20.5 49t20.5 50.5t49.5 21.5q28 0 49 -21.5t21 -50.5t-21 -49t-49 -20z" />
    <glyph glyph-name="fehDotbelow-ar.medi" unicode="&#x6a2;" horiz-adv-x="529" 
d="M0 -5l10 139q30 -1 56.5 0.5t49.5 3.5q-22 26 -36.5 58.5t-14.5 73.5q0 62 31 108.5t78.5 72.5t97.5 26q60 0 104 -28t68.5 -73.5t24.5 -97.5q0 -42 -14 -77t-37 -62q30 -2 60.5 -3t59.5 -1q38 0 54.5 -19.5t16.5 -48.5q0 -31 -21 -51.5t-60 -20.5q-74 0 -144 10t-122 29
q-37 -16 -106 -28t-156 -11zM203 260q0 -25 14 -47t39 -41q36 16 55.5 40t19.5 52q0 27 -16.5 53t-45.5 26q-28 0 -47 -24t-19 -59zM262 -248q-29 0 -49.5 20t-20.5 49t20.5 50.5t49.5 21.5q28 0 49 -21.5t21 -50.5t-21 -49t-49 -20z" />
    <glyph glyph-name="fehDotbelow-ar.fina" unicode="&#x6a2;" horiz-adv-x="1115" 
d="M424 -21q-144 0 -230 29t-124 80t-38 116q0 47 12 96.5t23 87.5l125 -29q-7 -28 -13.5 -59.5t-6.5 -55.5q0 -38 26.5 -66t87.5 -43.5t164 -15.5q72 0 137 5t115 13q-21 24 -36 53.5t-15 68.5q0 46 18.5 85.5t49 69.5t67 46.5t72.5 16.5q58 0 102 -30.5t69.5 -78.5
t25.5 -101q0 -39 -13 -71t-34 -57q29 -2 58.5 -3t57.5 -1q38 0 54.5 -19.5t16.5 -48.5q0 -31 -21 -51.5t-60 -20.5q-74 0 -144 10t-122 29q-26 -11 -72 -21t-104 -17.5t-122 -12t-126 -4.5zM789 256q0 -20 14 -43t38 -42q36 17 56 41t20 50q0 18 -8.5 37t-22.5 31.5
t-31 12.5q-25 0 -45.5 -26t-20.5 -61zM490 -248q-29 0 -49.5 20t-20.5 49t20.5 50.5t49.5 21.5q28 0 49 -21.5t21 -50.5t-21 -49t-49 -20z" />
    <glyph glyph-name="fehDotaboveDotbelow-ar.init" unicode="&#x6a3;" horiz-adv-x="505" 
d="M0 -5l10 139q82 0 133 1t79.5 4.5t42.5 9t24 12.5q8 6 14.5 15t11.5 22q-41 -15 -85 -15q-80 0 -126 33.5t-46 118.5q0 44 15 87.5t43 79t66 57t84 21.5q68 0 112.5 -39.5t66 -106t21.5 -147.5q0 -71 -21 -123.5t-50 -82.5q-24 -25 -55 -42t-75.5 -26.5t-109 -13.5
t-155.5 -4zM196 362q0 -43 67 -43q32 0 64 10q-5 55 -23 84t-46 29q-24 0 -43 -23t-19 -57zM264 673q-31 0 -52.5 21t-21.5 52t21.5 53t52.5 22q30 0 51.5 -22t21.5 -53t-21.5 -52t-51.5 -21zM220 -247q-29 0 -49.5 20t-20.5 49t20.5 50.5t49.5 21.5q28 0 49 -21.5t21 -50.5
t-21 -49t-49 -20z" />
    <glyph glyph-name="fehDotaboveDotbelow-ar.medi" unicode="&#x6a3;" horiz-adv-x="529" 
d="M0 -5l10 139q30 -1 56.5 0.5t49.5 3.5q-22 26 -36.5 58.5t-14.5 73.5q0 62 31 108.5t78.5 72.5t97.5 26q60 0 104 -28t68.5 -73.5t24.5 -97.5q0 -42 -14 -77t-37 -62q30 -2 60.5 -3t59.5 -1q38 0 54.5 -19.5t16.5 -48.5q0 -31 -21 -51.5t-60 -20.5q-74 0 -144 10t-122 29
q-37 -16 -106 -28t-156 -11zM203 260q0 -25 14 -47t39 -41q36 16 55.5 40t19.5 52q0 27 -16.5 53t-45.5 26q-28 0 -47 -24t-19 -59zM273 570q-31 0 -52.5 21t-21.5 52t21.5 53t52.5 22q30 0 51.5 -22t21.5 -53t-21.5 -52t-51.5 -21zM262 -248q-29 0 -49.5 20t-20.5 49
t20.5 50.5t49.5 21.5q28 0 49 -21.5t21 -50.5t-21 -49t-49 -20z" />
    <glyph glyph-name="fehDotaboveDotbelow-ar.fina" unicode="&#x6a3;" horiz-adv-x="1115" 
d="M424 -21q-144 0 -230 29t-124 80t-38 116q0 47 12 96.5t23 87.5l125 -29q-7 -28 -13.5 -59.5t-6.5 -55.5q0 -38 26.5 -66t87.5 -43.5t164 -15.5q72 0 137 5t115 13q-21 24 -36 53.5t-15 68.5q0 46 18.5 85.5t49 69.5t67 46.5t72.5 16.5q58 0 102 -30.5t69.5 -78.5
t25.5 -101q0 -39 -13 -71t-34 -57q29 -2 58.5 -3t57.5 -1q38 0 54.5 -19.5t16.5 -48.5q0 -31 -21 -51.5t-60 -20.5q-74 0 -144 10t-122 29q-26 -11 -72 -21t-104 -17.5t-122 -12t-126 -4.5zM789 256q0 -20 14 -43t38 -42q36 17 56 41t20 50q0 18 -8.5 37t-22.5 31.5
t-31 12.5q-25 0 -45.5 -26t-20.5 -61zM859 570q-31 0 -52.5 21t-21.5 52t21.5 53t52.5 22q30 0 51.5 -22t21.5 -53t-21.5 -52t-51.5 -21zM490 -248q-29 0 -49.5 20t-20.5 49t20.5 50.5t49.5 21.5q28 0 49 -21.5t21 -50.5t-21 -49t-49 -20z" />
    <glyph glyph-name="fehThreedotsbelow-ar.init" unicode="&#x6a5;" horiz-adv-x="505" 
d="M0 -5l10 139q82 0 133 1t79.5 4.5t42.5 9t24 12.5q8 6 14.5 15t11.5 22q-41 -15 -85 -15q-80 0 -126 33.5t-46 118.5q0 44 15 87.5t43 79t66 57t84 21.5q68 0 112.5 -39.5t66 -106t21.5 -147.5q0 -71 -21 -123.5t-50 -82.5q-24 -25 -55 -42t-75.5 -26.5t-109 -13.5
t-155.5 -4zM196 362q0 -43 67 -43q32 0 64 10q-5 55 -23 84t-46 29q-24 0 -43 -23t-19 -57zM164 -154q-20 0 -34.5 14.5t-14.5 34.5t14.5 35t34.5 15q21 0 35.5 -15t14.5 -35t-14.5 -34.5t-35.5 -14.5zM287 -154q-21 0 -35.5 14.5t-14.5 34.5t14.5 35t35.5 15q20 0 34.5 -15
t14.5 -35t-14.5 -34.5t-34.5 -14.5zM224 -258q-21 0 -35 14t-14 35q0 20 14 35t35 15q20 0 35 -15t15 -35q0 -21 -15 -35t-35 -14z" />
    <glyph glyph-name="fehThreedotsbelow-ar.medi" unicode="&#x6a5;" horiz-adv-x="529" 
d="M0 -5l10 139q30 -1 56.5 0.5t49.5 3.5q-22 26 -36.5 58.5t-14.5 73.5q0 62 31 108.5t78.5 72.5t97.5 26q60 0 104 -28t68.5 -73.5t24.5 -97.5q0 -42 -14 -77t-37 -62q30 -2 60.5 -3t59.5 -1q38 0 54.5 -19.5t16.5 -48.5q0 -31 -21 -51.5t-60 -20.5q-74 0 -144 10t-122 29
q-37 -16 -106 -28t-156 -11zM203 260q0 -25 14 -47t39 -41q36 16 55.5 40t19.5 52q0 27 -16.5 53t-45.5 26q-28 0 -47 -24t-19 -59zM206 -155q-20 0 -34.5 14.5t-14.5 34.5t14.5 35t34.5 15q21 0 35.5 -15t14.5 -35t-14.5 -34.5t-35.5 -14.5zM329 -155q-21 0 -35.5 14.5
t-14.5 34.5t14.5 35t35.5 15q20 0 34.5 -15t14.5 -35t-14.5 -34.5t-34.5 -14.5zM266 -259q-21 0 -35 14t-14 35q0 20 14 35t35 15q20 0 35 -15t15 -35q0 -21 -15 -35t-35 -14z" />
    <glyph glyph-name="fehThreedotsbelow-ar.fina" unicode="&#x6a5;" horiz-adv-x="1115" 
d="M424 -21q-144 0 -230 29t-124 80t-38 116q0 47 12 96.5t23 87.5l125 -29q-7 -28 -13.5 -59.5t-6.5 -55.5q0 -38 26.5 -66t87.5 -43.5t164 -15.5q72 0 137 5t115 13q-21 24 -36 53.5t-15 68.5q0 46 18.5 85.5t49 69.5t67 46.5t72.5 16.5q58 0 102 -30.5t69.5 -78.5
t25.5 -101q0 -39 -13 -71t-34 -57q29 -2 58.5 -3t57.5 -1q38 0 54.5 -19.5t16.5 -48.5q0 -31 -21 -51.5t-60 -20.5q-74 0 -144 10t-122 29q-26 -11 -72 -21t-104 -17.5t-122 -12t-126 -4.5zM789 256q0 -20 14 -43t38 -42q36 17 56 41t20 50q0 18 -8.5 37t-22.5 31.5
t-31 12.5q-25 0 -45.5 -26t-20.5 -61zM434 -155q-20 0 -34.5 14.5t-14.5 34.5t14.5 35t34.5 15q21 0 35.5 -15t14.5 -35t-14.5 -34.5t-35.5 -14.5zM557 -155q-21 0 -35.5 14.5t-14.5 34.5t14.5 35t35.5 15q20 0 34.5 -15t14.5 -35t-14.5 -34.5t-34.5 -14.5zM494 -259
q-21 0 -35 14t-14 35q0 20 14 35t35 15q20 0 35 -15t15 -35q0 -21 -15 -35t-35 -14z" />
    <glyph glyph-name="qafDotabove-ar.init" unicode="&#x6a7;" horiz-adv-x="505" 
d="M0 -5l10 139q82 0 133 1t79.5 4.5t42.5 9t24 12.5q8 6 14.5 15t11.5 22q-41 -15 -85 -15q-80 0 -126 33.5t-46 118.5q0 44 15 87.5t43 79t66 57t84 21.5q68 0 112.5 -39.5t66 -106t21.5 -147.5q0 -71 -21 -123.5t-50 -82.5q-24 -25 -55 -42t-75.5 -26.5t-109 -13.5
t-155.5 -4zM196 362q0 -43 67 -43q32 0 64 10q-5 55 -23 84t-46 29q-24 0 -43 -23t-19 -57zM264 673q-31 0 -52.5 21t-21.5 52t21.5 53t52.5 22q30 0 51.5 -22t21.5 -53t-21.5 -52t-51.5 -21z" />
    <glyph glyph-name="qafDotabove-ar.medi" unicode="&#x6a7;" horiz-adv-x="529" 
d="M0 -5l10 139q30 -1 56.5 0.5t49.5 3.5q-22 26 -36.5 58.5t-14.5 73.5q0 62 31 108.5t78.5 72.5t97.5 26q60 0 104 -28t68.5 -73.5t24.5 -97.5q0 -42 -14 -77t-37 -62q30 -2 60.5 -3t59.5 -1q38 0 54.5 -19.5t16.5 -48.5q0 -31 -21 -51.5t-60 -20.5q-74 0 -144 10t-122 29
q-37 -16 -106 -28t-156 -11zM203 260q0 -25 14 -47t39 -41q36 16 55.5 40t19.5 52q0 27 -16.5 53t-45.5 26q-28 0 -47 -24t-19 -59zM273 570q-31 0 -52.5 21t-21.5 52t21.5 53t52.5 22q30 0 51.5 -22t21.5 -53t-21.5 -52t-51.5 -21z" />
    <glyph glyph-name="qafDotabove-ar.fina" unicode="&#x6a7;" horiz-adv-x="855" 
d="M349 -271q-89 0 -162.5 26t-117 81.5t-43.5 146.5q0 34 9 84t47 132l122 -47q-22 -54 -30 -84t-8 -61q0 -67 55.5 -102.5t151.5 -35.5q110 0 177.5 37t85.5 86l1 3h-26q-114 0 -168.5 40.5t-55.5 119.5q0 45 16.5 87.5t45.5 75.5t65.5 52.5t75.5 19.5q87 0 141 -67.5
t61 -186.5h73q37 0 53.5 -19.5t16.5 -48.5q0 -32 -21 -52.5t-59 -20.5h-79q-12 -44 -32 -81q-50 -93 -151 -139t-244 -46zM523 179q0 -15 8.5 -27t36 -17.5t85.5 -3.5q-2 60 -20 90.5t-47 30.5q-19 0 -33 -12t-22 -29t-8 -32zM589 483q-31 0 -52.5 21t-21.5 52t21.5 53
t52.5 22q30 0 51.5 -22t21.5 -53t-21.5 -52t-51.5 -21z" />
    <glyph glyph-name="qafThreedotsabove-ar.init" unicode="&#x6a8;" horiz-adv-x="505" 
d="M0 -5l10 139q82 0 133 1t79.5 4.5t42.5 9t24 12.5q8 6 14.5 15t11.5 22q-41 -15 -85 -15q-80 0 -126 33.5t-46 118.5q0 44 15 87.5t43 79t66 57t84 21.5q68 0 112.5 -39.5t66 -106t21.5 -147.5q0 -71 -21 -123.5t-50 -82.5q-24 -25 -55 -42t-75.5 -26.5t-109 -13.5
t-155.5 -4zM196 362q0 -43 67 -43q32 0 64 10q-5 55 -23 84t-46 29q-24 0 -43 -23t-19 -57zM271 805q-26 0 -44 19t-18 45t18 44t44 18t44 -18t18 -44t-18 -45t-44 -19zM191 673q-26 0 -44 19t-18 45t18 44t44 18t44 -18t18 -44t-18 -45t-44 -19zM346 673q-25 0 -43.5 19
t-18.5 45t18.5 44t43.5 18q26 0 44 -18t18 -44t-18 -45t-44 -19z" />
    <glyph glyph-name="qafThreedotsabove-ar.medi" unicode="&#x6a8;" horiz-adv-x="529" 
d="M0 -5l10 139q30 -1 56.5 0.5t49.5 3.5q-22 26 -36.5 58.5t-14.5 73.5q0 62 31 108.5t78.5 72.5t97.5 26q60 0 104 -28t68.5 -73.5t24.5 -97.5q0 -42 -14 -77t-37 -62q30 -2 60.5 -3t59.5 -1q38 0 54.5 -19.5t16.5 -48.5q0 -31 -21 -51.5t-60 -20.5q-74 0 -144 10t-122 29
q-37 -16 -106 -28t-156 -11zM203 260q0 -25 14 -47t39 -41q36 16 55.5 40t19.5 52q0 27 -16.5 53t-45.5 26q-28 0 -47 -24t-19 -59zM280 702q-26 0 -44 19t-18 45t18 44t44 18t44 -18t18 -44t-18 -45t-44 -19zM200 570q-26 0 -44 19t-18 45t18 44t44 18t44 -18t18 -44
t-18 -45t-44 -19zM355 570q-25 0 -43.5 19t-18.5 45t18.5 44t43.5 18q26 0 44 -18t18 -44t-18 -45t-44 -19z" />
    <glyph glyph-name="qafThreedotsabove-ar.fina" unicode="&#x6a8;" horiz-adv-x="855" 
d="M349 -271q-89 0 -162.5 26t-117 81.5t-43.5 146.5q0 34 9 84t47 132l122 -47q-22 -54 -30 -84t-8 -61q0 -67 55.5 -102.5t151.5 -35.5q110 0 177.5 37t85.5 86l1 3h-26q-114 0 -168.5 40.5t-55.5 119.5q0 45 16.5 87.5t45.5 75.5t65.5 52.5t75.5 19.5q87 0 141 -67.5
t61 -186.5h73q37 0 53.5 -19.5t16.5 -48.5q0 -32 -21 -52.5t-59 -20.5h-79q-12 -44 -32 -81q-50 -93 -151 -139t-244 -46zM523 179q0 -15 8.5 -27t36 -17.5t85.5 -3.5q-2 60 -20 90.5t-47 30.5q-19 0 -33 -12t-22 -29t-8 -32zM596 615q-26 0 -44 19t-18 45t18 44t44 18
t44 -18t18 -44t-18 -45t-44 -19zM516 483q-26 0 -44 19t-18 45t18 44t44 18t44 -18t18 -44t-18 -45t-44 -19zM671 483q-25 0 -43.5 19t-18.5 45t18.5 44t43.5 18q26 0 44 -18t18 -44t-18 -45t-44 -19z" />
    <glyph glyph-name="kafswash-ar.init" unicode="&#x6aa;" horiz-adv-x="813" 
d="M0 -5l10 140h309q115 0 183 1t98.5 7.5t30.5 23.5t-16.5 27.5t-62.5 18t-135 15.5q-113 10 -180.5 27t-97 46t-29.5 77q0 66 50.5 115t142 83t213.5 52l27 -137q-137 -20 -216 -46.5t-79 -46.5q0 -11 18 -18t60.5 -12.5t116.5 -11.5q125 -10 196.5 -32.5t100.5 -61
t29 -99.5q0 -67 -44 -103.5t-142.5 -50.5t-263.5 -14h-319z" />
    <glyph glyph-name="kafswash-ar.medi" unicode="&#x6aa;" horiz-adv-x="900" 
d="M0 -5l10 140h309q115 0 183 1t98.5 7.5t30.5 23.5t-16.5 27.5t-62.5 18t-135 15.5q-113 10 -180.5 27t-97 46t-29.5 77q0 66 50.5 115t142 83t213.5 52l27 -137q-137 -20 -216 -46.5t-79 -46.5q0 -11 18 -18t60.5 -12.5t116.5 -11.5q125 -10 196.5 -32.5t100.5 -61
t29 -99.5q0 -67 -44 -103.5t-142.5 -50.5t-263.5 -14h-319zM899 -5q-77 0 -143 20.5t-101 50.5l90 97q36 -15 74 -21.5t90 -6.5q37 0 54 -19.5t17 -48.5q0 -31 -21 -51.5t-60 -20.5z" />
    <glyph glyph-name="kafswash-ar.fina" unicode="&#x6aa;" horiz-adv-x="1122" 
d="M1121 -5q-77 0 -143 20.5t-101 50.5l90 97q36 -15 74 -21.5t90 -6.5q37 0 54 -19.5t17 -48.5q0 -31 -21 -51.5t-60 -20.5zM540 -15q-48 0 -112.5 1t-134 3t-133.5 6t-111 9l6 138q67 -4 147.5 -8t167 -6.5t170.5 -2.5q114 0 182.5 3t99 11.5t30.5 24.5q0 10 -7 19.5
t-28.5 17t-64 14.5t-114.5 13q-112 10 -180 26t-98 46.5t-30 82.5q0 51 31 90.5t86.5 69t129.5 50.5t160 35l27 -137q-137 -21 -216.5 -47t-79.5 -46q0 -15 42.5 -24t153.5 -18q126 -10 197 -33t100 -62t29 -98q0 -67 -44 -106t-143 -55.5t-263 -16.5z" />
    <glyph glyph-name="kafRing-ar.init" unicode="&#x6ab;" horiz-adv-x="454" 
d="M0 -5l10 140h143q84 0 84 47q0 12 -12.5 38.5t-53.5 64.5q-22 20 -47.5 42.5t-48.5 43t-38 36.5t-15 23q0 22 4.5 50t16.5 38q23 21 74.5 52t125 68t162.5 76l57 -122q-84 -36 -154 -70t-123 -65q69 -57 110.5 -102.5t62 -82t27 -65.5t6.5 -51q0 -24 -11.5 -51.5
t-41 -52.5t-82.5 -41t-136 -16h-120zM345 400q-42 0 -71 29.5t-29 70.5t29 70.5t71 29.5q41 0 70.5 -29.5t29.5 -70.5t-29.5 -70.5t-70.5 -29.5zM344 466q16 0 26.5 9.5t10.5 24.5q0 16 -10.5 25.5t-26.5 9.5q-15 0 -25.5 -10t-10.5 -25t10.5 -24.5t25.5 -9.5z" />
    <glyph glyph-name="kafRing-ar.medi" unicode="&#x6ab;" horiz-adv-x="508" 
d="M0 -5l10 140h140q52 0 69 9t17 28q0 22 -21.5 51.5t-53.5 61.5t-64 62t-53.5 52.5t-21.5 32.5q0 41 6.5 59t17.5 29q23 23 74.5 53t124.5 65.5t160 75.5l57 -122q-99 -44 -167 -77t-115 -60q66 -60 114 -115t91 -125q21 -35 45 -52t46.5 -22.5t40.5 -5.5q37 0 54 -19.5
t17 -48.5q0 -31 -21 -51.5t-60 -20.5t-85.5 16t-78.5 56q-32 -39 -81.5 -55.5t-121.5 -16.5h-140zM346 400q-42 0 -71 29.5t-29 70.5t29 70.5t71 29.5q41 0 70.5 -29.5t29.5 -70.5t-29.5 -70.5t-70.5 -29.5zM345 466q16 0 26.5 9.5t10.5 24.5q0 16 -10.5 25.5t-26.5 9.5
q-15 0 -25.5 -10t-10.5 -25t10.5 -24.5t25.5 -9.5z" />
    <glyph glyph-name="kafRing-ar.fina" unicode="&#x6ab;" horiz-adv-x="952" 
d="M424 -21q-144 0 -230 29t-124 80t-38 116q0 47 12 96.5t23 87.5l125 -29q-7 -28 -13.5 -59.5t-6.5 -55.5q0 -38 26.5 -66t87.5 -43.5t164 -15.5q94 0 143.5 4t68 14.5t18.5 31.5q0 22 -21.5 51.5t-53.5 61.5t-64 62t-53.5 52.5t-21.5 32.5q0 41 6.5 59t17.5 29
q23 23 74.5 53t124.5 65.5t160 75.5l57 -122q-99 -44 -167 -77t-115 -60q66 -60 114 -115t91 -125q21 -35 45 -51.5t46.5 -21t40.5 -4.5q37 0 54 -21t17 -50q0 -32 -21 -50.5t-60 -18.5t-85 15t-79 53q-26 -35 -69 -53t-113.5 -24.5t-180.5 -6.5zM800 400q-42 0 -71 29.5
t-29 70.5t29 70.5t71 29.5q41 0 70.5 -29.5t29.5 -70.5t-29.5 -70.5t-70.5 -29.5zM799 466q16 0 26.5 9.5t10.5 24.5q0 16 -10.5 25.5t-26.5 9.5q-15 0 -25.5 -10t-10.5 -25t10.5 -24.5t25.5 -9.5z" />
    <glyph glyph-name="kafDotabove-ar.init" unicode="&#x6ac;" horiz-adv-x="454" 
d="M0 -5l10 140h143q84 0 84 47q0 12 -12.5 38.5t-53.5 64.5q-22 20 -47.5 42.5t-48.5 43t-38 36.5t-15 23q0 22 4.5 50t16.5 38q23 21 74.5 52t125 68t162.5 76l57 -122q-84 -36 -154 -70t-123 -65q69 -57 110.5 -102.5t62 -82t27 -65.5t6.5 -51q0 -24 -11.5 -51.5
t-41 -52.5t-82.5 -41t-136 -16h-120zM153 729q-31 0 -52.5 21t-21.5 52t21.5 53t52.5 22q30 0 51.5 -22t21.5 -53t-21.5 -52t-51.5 -21z" />
    <glyph glyph-name="kafDotabove-ar.medi" unicode="&#x6ac;" horiz-adv-x="508" 
d="M0 -5l10 140h140q52 0 69 9t17 28q0 22 -21.5 51.5t-53.5 61.5t-64 62t-53.5 52.5t-21.5 32.5q0 41 6.5 59t17.5 29q23 23 74.5 53t124.5 65.5t160 75.5l57 -122q-99 -44 -167 -77t-115 -60q66 -60 114 -115t91 -125q21 -35 45 -52t46.5 -22.5t40.5 -5.5q37 0 54 -19.5
t17 -48.5q0 -31 -21 -51.5t-60 -20.5t-85.5 16t-78.5 56q-32 -39 -81.5 -55.5t-121.5 -16.5h-140zM135 729q-31 0 -52.5 21t-21.5 52t21.5 53t52.5 22q30 0 51.5 -22t21.5 -53t-21.5 -52t-51.5 -21z" />
    <glyph glyph-name="kafDotabove-ar.fina" unicode="&#x6ac;" horiz-adv-x="974" 
d="M424 -21q-144 0 -230 29t-124 80t-38 116q0 47 12 96.5t23 87.5l125 -29q-7 -28 -13.5 -59.5t-6.5 -55.5q0 -38 26.5 -66t87.5 -43.5t164 -15.5q95 -1 153.5 5.5t89 25t40 53t6.5 88.5l-22 441h140l22 -448q3 -60 14 -92t33 -44.5t58 -12.5q37 0 53.5 -19.5t16.5 -48.5
q0 -31 -21 -51.5t-59 -20.5q-53 0 -93 16.5t-61 59.5q-37 -43 -94.5 -63t-133.5 -25t-168 -4zM376 216l-26 99q52 13 77 23t25 21t-14.5 26t-29 35t-14.5 47q0 37 32.5 70t110.5 64l43 -89q-42 -17 -56.5 -29.5t-14.5 -23.5q0 -13 14.5 -29.5t29.5 -38.5t15 -49
q0 -22 -12.5 -44t-53.5 -43t-126 -39zM468 678q-31 0 -52.5 21t-21.5 52t21.5 53t52.5 22q30 0 51.5 -22t21.5 -53t-21.5 -52t-51.5 -21z" />
    <glyph glyph-name="kafThreedotsbelow-ar.init" unicode="&#x6ae;" horiz-adv-x="454" 
d="M0 -5l10 140h143q84 0 84 47q0 12 -12.5 38.5t-53.5 64.5q-22 20 -47.5 42.5t-48.5 43t-38 36.5t-15 23q0 22 4.5 50t16.5 38q23 21 74.5 52t125 68t162.5 76l57 -122q-84 -36 -154 -70t-123 -65q69 -57 110.5 -102.5t62 -82t27 -65.5t6.5 -51q0 -24 -11.5 -51.5
t-41 -52.5t-82.5 -41t-136 -16h-120zM140 -137q-20 0 -34.5 14.5t-14.5 34.5t14.5 35t34.5 15q21 0 35.5 -15t14.5 -35t-14.5 -34.5t-35.5 -14.5zM263 -137q-21 0 -35.5 14.5t-14.5 34.5t14.5 35t35.5 15q20 0 34.5 -15t14.5 -35t-14.5 -34.5t-34.5 -14.5zM200 -241
q-21 0 -35 14t-14 35q0 20 14 35t35 15q20 0 35 -15t15 -35q0 -21 -15 -35t-35 -14z" />
    <glyph glyph-name="kafThreedotsbelow-ar.medi" unicode="&#x6ae;" horiz-adv-x="508" 
d="M0 -5l10 140h140q52 0 69 9t17 28q0 22 -21.5 51.5t-53.5 61.5t-64 62t-53.5 52.5t-21.5 32.5q0 41 6.5 59t17.5 29q23 23 74.5 53t124.5 65.5t160 75.5l57 -122q-99 -44 -167 -77t-115 -60q66 -60 114 -115t91 -125q21 -35 45 -52t46.5 -22.5t40.5 -5.5q37 0 54 -19.5
t17 -48.5q0 -31 -21 -51.5t-60 -20.5t-85.5 16t-78.5 56q-32 -39 -81.5 -55.5t-121.5 -16.5h-140zM140 -137q-20 0 -34.5 14.5t-14.5 34.5t14.5 35t34.5 15q21 0 35.5 -15t14.5 -35t-14.5 -34.5t-35.5 -14.5zM263 -137q-21 0 -35.5 14.5t-14.5 34.5t14.5 35t35.5 15
q20 0 34.5 -15t14.5 -35t-14.5 -34.5t-34.5 -14.5zM200 -241q-21 0 -35 14t-14 35q0 20 14 35t35 15q20 0 35 -15t15 -35q0 -21 -15 -35t-35 -14z" />
    <glyph glyph-name="kafThreedotsbelow-ar.fina" unicode="&#x6ae;" horiz-adv-x="974" 
d="M424 -21q-144 0 -230 29t-124 80t-38 116q0 47 12 96.5t23 87.5l125 -29q-7 -28 -13.5 -59.5t-6.5 -55.5q0 -38 26.5 -66t87.5 -43.5t164 -15.5q95 -1 153.5 5.5t89 25t40 53t6.5 88.5l-22 441h140l22 -448q3 -60 14 -92t33 -44.5t58 -12.5q37 0 53.5 -19.5t16.5 -48.5
q0 -31 -21 -51.5t-59 -20.5q-53 0 -93 16.5t-61 59.5q-37 -43 -94.5 -63t-133.5 -25t-168 -4zM376 216l-26 99q52 13 77 23t25 21t-14.5 26t-29 35t-14.5 47q0 37 32.5 70t110.5 64l43 -89q-42 -17 -56.5 -29.5t-14.5 -23.5q0 -13 14.5 -29.5t29.5 -38.5t15 -49
q0 -22 -12.5 -44t-53.5 -43t-126 -39zM371 -158q-20 0 -34.5 14.5t-14.5 34.5t14.5 35t34.5 15q21 0 35.5 -15t14.5 -35t-14.5 -34.5t-35.5 -14.5zM494 -158q-21 0 -35.5 14.5t-14.5 34.5t14.5 35t35.5 15q20 0 34.5 -15t14.5 -35t-14.5 -34.5t-34.5 -14.5zM431 -262
q-21 0 -35 14t-14 35q0 20 14 35t35 15q20 0 35 -15t15 -35q0 -21 -15 -35t-35 -14z" />
    <glyph glyph-name="gafRing-ar.init" unicode="&#x6b0;" horiz-adv-x="454" 
d="M0 -5l10 140h143q84 0 84 47q0 12 -12.5 38.5t-53.5 64.5q-22 20 -47.5 42.5t-48.5 43t-38 36.5t-15 23q0 22 4.5 50t16.5 38q23 21 74.5 52t125 68t162.5 76l57 -122q-84 -36 -154 -70t-123 -65q69 -57 110.5 -102.5t62 -82t27 -65.5t6.5 -51q0 -24 -11.5 -51.5
t-41 -52.5t-82.5 -41t-136 -16h-120zM3 585l-49 82q49 29 101 58.5t116.5 64t151.5 78.5l46 -88q-90 -44 -154 -77.5t-114.5 -62t-97.5 -55.5zM345 400q-42 0 -71 29.5t-29 70.5t29 70.5t71 29.5q41 0 70.5 -29.5t29.5 -70.5t-29.5 -70.5t-70.5 -29.5zM344 466
q16 0 26.5 9.5t10.5 24.5q0 16 -10.5 25.5t-26.5 9.5q-15 0 -25.5 -10t-10.5 -25t10.5 -24.5t25.5 -9.5z" />
    <glyph glyph-name="gafRing-ar.medi" unicode="&#x6b0;" horiz-adv-x="508" 
d="M0 -5l10 140h140q52 0 69 9t17 28q0 22 -21.5 51.5t-53.5 61.5t-64 62t-53.5 52.5t-21.5 32.5q0 41 6.5 59t17.5 29q23 23 74.5 53t124.5 65.5t160 75.5l57 -122q-99 -44 -167 -77t-115 -60q66 -60 114 -115t91 -125q21 -35 45 -52t46.5 -22.5t40.5 -5.5q37 0 54 -19.5
t17 -48.5q0 -31 -21 -51.5t-60 -20.5t-85.5 16t-78.5 56q-32 -39 -81.5 -55.5t-121.5 -16.5h-140zM8 585l-49 82q49 29 101 58.5t116.5 64t151.5 78.5l46 -88q-90 -44 -154 -77.5t-114.5 -62t-97.5 -55.5zM346 400q-42 0 -71 29.5t-29 70.5t29 70.5t71 29.5q41 0 70.5 -29.5
t29.5 -70.5t-29.5 -70.5t-70.5 -29.5zM345 466q16 0 26.5 9.5t10.5 24.5q0 16 -10.5 25.5t-26.5 9.5q-15 0 -25.5 -10t-10.5 -25t10.5 -24.5t25.5 -9.5z" />
    <glyph glyph-name="gafRing-ar.fina" unicode="&#x6b0;" horiz-adv-x="952" 
d="M424 -21q-144 0 -230 29t-124 80t-38 116q0 47 12 96.5t23 87.5l125 -29q-7 -28 -13.5 -59.5t-6.5 -55.5q0 -38 26.5 -66t87.5 -43.5t164 -15.5q94 0 143.5 4t68 14.5t18.5 31.5q0 22 -21.5 51.5t-53.5 61.5t-64 62t-53.5 52.5t-21.5 32.5q0 41 6.5 59t17.5 29
q23 23 74.5 53t124.5 65.5t160 75.5l57 -122q-99 -44 -167 -77t-115 -60q66 -60 114 -115t91 -125q21 -35 45 -51.5t46.5 -21t40.5 -4.5q37 0 54 -21t17 -50q0 -32 -21 -50.5t-60 -18.5t-85 15t-79 53q-26 -35 -69 -53t-113.5 -24.5t-180.5 -6.5zM453 585l-49 82
q49 29 101 58.5t116.5 64t151.5 78.5l46 -88q-90 -44 -154 -77.5t-114.5 -62t-97.5 -55.5zM800 400q-42 0 -71 29.5t-29 70.5t29 70.5t71 29.5q41 0 70.5 -29.5t29.5 -70.5t-29.5 -70.5t-70.5 -29.5zM799 466q16 0 26.5 9.5t10.5 24.5q0 16 -10.5 25.5t-26.5 9.5
q-15 0 -25.5 -10t-10.5 -25t10.5 -24.5t25.5 -9.5z" />
    <glyph glyph-name="gafTwodotsbelow-ar.init" unicode="&#x6b2;" horiz-adv-x="454" 
d="M0 -5l10 140h143q84 0 84 47q0 12 -12.5 38.5t-53.5 64.5q-22 20 -47.5 42.5t-48.5 43t-38 36.5t-15 23q0 22 4.5 50t16.5 38q23 21 74.5 52t125 68t162.5 76l57 -122q-84 -36 -154 -70t-123 -65q69 -57 110.5 -102.5t62 -82t27 -65.5t6.5 -51q0 -24 -11.5 -51.5
t-41 -52.5t-82.5 -41t-136 -16h-120zM3 585l-49 82q49 29 101 58.5t116.5 64t151.5 78.5l46 -88q-90 -44 -154 -77.5t-114.5 -62t-97.5 -55.5zM254 -232q-29 0 -49.5 20t-20.5 49t20.5 50t49.5 21q28 0 48 -21t20 -50t-20 -49t-48 -20zM81 -232q-29 0 -49.5 20t-20.5 49
t20.5 50t49.5 21q28 0 48 -21t20 -50t-20 -49t-48 -20z" />
    <glyph glyph-name="gafTwodotsbelow-ar.medi" unicode="&#x6b2;" horiz-adv-x="508" 
d="M0 -5l10 140h140q52 0 69 9t17 28q0 22 -21.5 51.5t-53.5 61.5t-64 62t-53.5 52.5t-21.5 32.5q0 41 6.5 59t17.5 29q23 23 74.5 53t124.5 65.5t160 75.5l57 -122q-99 -44 -167 -77t-115 -60q66 -60 114 -115t91 -125q21 -35 45 -52t46.5 -22.5t40.5 -5.5q37 0 54 -19.5
t17 -48.5q0 -31 -21 -51.5t-60 -20.5t-85.5 16t-78.5 56q-32 -39 -81.5 -55.5t-121.5 -16.5h-140zM8 585l-49 82q49 29 101 58.5t116.5 64t151.5 78.5l46 -88q-90 -44 -154 -77.5t-114.5 -62t-97.5 -55.5zM254 -232q-29 0 -49.5 20t-20.5 49t20.5 50t49.5 21q28 0 48 -21
t20 -50t-20 -49t-48 -20zM81 -232q-29 0 -49.5 20t-20.5 49t20.5 50t49.5 21q28 0 48 -21t20 -50t-20 -49t-48 -20z" />
    <glyph glyph-name="gafTwodotsbelow-ar.fina" unicode="&#x6b2;" horiz-adv-x="952" 
d="M424 -21q-144 0 -230 29t-124 80t-38 116q0 47 12 96.5t23 87.5l125 -29q-7 -28 -13.5 -59.5t-6.5 -55.5q0 -38 26.5 -66t87.5 -43.5t164 -15.5q94 0 143.5 4t68 14.5t18.5 31.5q0 22 -21.5 51.5t-53.5 61.5t-64 62t-53.5 52.5t-21.5 32.5q0 41 6.5 59t17.5 29
q23 23 74.5 53t124.5 65.5t160 75.5l57 -122q-99 -44 -167 -77t-115 -60q66 -60 114 -115t91 -125q21 -35 45 -51.5t46.5 -21t40.5 -4.5q37 0 54 -21t17 -50q0 -32 -21 -50.5t-60 -18.5t-85 15t-79 53q-26 -35 -69 -53t-113.5 -24.5t-180.5 -6.5zM453 585l-49 82
q49 29 101 58.5t116.5 64t151.5 78.5l46 -88q-90 -44 -154 -77.5t-114.5 -62t-97.5 -55.5zM501 -253q-29 0 -49.5 20t-20.5 49t20.5 50t49.5 21q28 0 48 -21t20 -50t-20 -49t-48 -20zM328 -253q-29 0 -49.5 20t-20.5 49t20.5 50t49.5 21q28 0 48 -21t20 -50t-20 -49t-48 -20
z" />
    <glyph glyph-name="gafThreedots-ar.init" unicode="&#x6b4;" horiz-adv-x="454" 
d="M0 -5l10 140h143q84 0 84 47q0 12 -12.5 38.5t-53.5 64.5q-22 20 -47.5 42.5t-48.5 43t-38 36.5t-15 23q0 22 4.5 50t16.5 38q23 21 74.5 52t125 68t162.5 76l57 -122q-84 -36 -154 -70t-123 -65q69 -57 110.5 -102.5t62 -82t27 -65.5t6.5 -51q0 -24 -11.5 -51.5
t-41 -52.5t-82.5 -41t-136 -16h-120zM3 585l-49 82q49 29 101 58.5t116.5 64t151.5 78.5l46 -88q-90 -44 -154 -77.5t-114.5 -62t-97.5 -55.5zM41.7012 919.109q-21.7002 0 -36.751 14.7002q-15.0498 14.7002 -15.0498 36.4014q0 21.7002 15.0498 37.1006
q15.0508 15.4004 36.751 15.4004q21 0 36.0508 -15.4004q15.0498 -15.4004 15.0498 -37.1006q0 -21.7012 -15.0498 -36.4014q-15.0508 -14.7002 -36.0508 -14.7002zM146.703 860.309q-21.7002 0 -36.751 14.7002q-15.0498 14.7002 -15.0498 36.4004
q0 21.7012 15.0498 37.1006q15.0508 15.4004 36.751 15.4004q21 0 36.0508 -15.4004q15.0498 -15.3994 15.0498 -37.1006q0 -21.7002 -15.0498 -36.4004q-15.0508 -14.7002 -36.0508 -14.7002zM41.7012 798.708q-21.7002 0 -36.751 14.7002
q-15.0498 14.7002 -15.0498 36.4004t15.0498 37.1006q15.0508 15.4004 36.751 15.4004q21 0 36.0508 -15.4004q15.0498 -15.4004 15.0498 -37.1006t-15.0498 -36.4004q-15.0508 -14.7002 -36.0508 -14.7002z" />
    <glyph glyph-name="gafThreedots-ar.medi" unicode="&#x6b4;" horiz-adv-x="508" 
d="M0 -5l10 140h140q52 0 69 9t17 28q0 22 -21.5 51.5t-53.5 61.5t-64 62t-53.5 52.5t-21.5 32.5q0 41 6.5 59t17.5 29q23 23 74.5 53t124.5 65.5t160 75.5l57 -122q-99 -44 -167 -77t-115 -60q66 -60 114 -115t91 -125q21 -35 45 -52t46.5 -22.5t40.5 -5.5q37 0 54 -19.5
t17 -48.5q0 -31 -21 -51.5t-60 -20.5t-85.5 16t-78.5 56q-32 -39 -81.5 -55.5t-121.5 -16.5h-140zM8 585l-49 82q49 29 101 58.5t116.5 64t151.5 78.5l46 -88q-90 -44 -154 -77.5t-114.5 -62t-97.5 -55.5zM42.7012 919.109q-21.7002 0 -36.751 14.7002
q-15.0498 14.7002 -15.0498 36.4014q0 21.7002 15.0498 37.1006q15.0508 15.4004 36.751 15.4004q21 0 36.0508 -15.4004q15.0498 -15.4004 15.0498 -37.1006q0 -21.7012 -15.0498 -36.4014q-15.0508 -14.7002 -36.0508 -14.7002zM147.703 860.309
q-21.7002 0 -36.751 14.7002q-15.0498 14.7002 -15.0498 36.4004q0 21.7012 15.0498 37.1006q15.0508 15.4004 36.751 15.4004q21 0 36.0508 -15.4004q15.0498 -15.3994 15.0498 -37.1006q0 -21.7002 -15.0498 -36.4004q-15.0508 -14.7002 -36.0508 -14.7002z
M42.7012 798.708q-21.7002 0 -36.751 14.7002q-15.0498 14.7002 -15.0498 36.4004t15.0498 37.1006q15.0508 15.4004 36.751 15.4004q21 0 36.0508 -15.4004q15.0498 -15.4004 15.0498 -37.1006t-15.0498 -36.4004q-15.0508 -14.7002 -36.0508 -14.7002z" />
    <glyph glyph-name="gafThreedots-ar.fina" unicode="&#x6b4;" horiz-adv-x="952" 
d="M424 -21q-144 0 -230 29t-124 80t-38 116q0 47 12 96.5t23 87.5l125 -29q-7 -28 -13.5 -59.5t-6.5 -55.5q0 -38 26.5 -66t87.5 -43.5t164 -15.5q94 0 143.5 4t68 14.5t18.5 31.5q0 22 -21.5 51.5t-53.5 61.5t-64 62t-53.5 52.5t-21.5 32.5q0 41 6.5 59t17.5 29
q23 23 74.5 53t124.5 65.5t160 75.5l57 -122q-99 -44 -167 -77t-115 -60q66 -60 114 -115t91 -125q21 -35 45 -51.5t46.5 -21t40.5 -4.5q37 0 54 -21t17 -50q0 -32 -21 -50.5t-60 -18.5t-85 15t-79 53q-26 -35 -69 -53t-113.5 -24.5t-180.5 -6.5zM453 585l-49 82
q49 29 101 58.5t116.5 64t151.5 78.5l46 -88q-90 -44 -154 -77.5t-114.5 -62t-97.5 -55.5zM487.701 924.109q-21.7002 0 -36.751 14.7002q-15.0498 14.7002 -15.0498 36.4014q0 21.7002 15.0498 37.1006q15.0508 15.4004 36.751 15.4004q21 0 36.0508 -15.4004
q15.0498 -15.4004 15.0498 -37.1006q0 -21.7012 -15.0498 -36.4014q-15.0508 -14.7002 -36.0508 -14.7002zM592.703 865.309q-21.7002 0 -36.751 14.7002q-15.0498 14.7002 -15.0498 36.4004q0 21.7012 15.0498 37.1006q15.0508 15.4004 36.751 15.4004
q21 0 36.0508 -15.4004q15.0498 -15.3994 15.0498 -37.1006q0 -21.7002 -15.0498 -36.4004q-15.0508 -14.7002 -36.0508 -14.7002zM487.701 803.708q-21.7002 0 -36.751 14.7002q-15.0498 14.7002 -15.0498 36.4004t15.0498 37.1006q15.0508 15.4004 36.751 15.4004
q21 0 36.0508 -15.4004q15.0498 -15.4004 15.0498 -37.1006t-15.0498 -36.4004q-15.0508 -14.7002 -36.0508 -14.7002z" />
    <glyph glyph-name="lamVabove-ar.init" unicode="&#x6b5;" horiz-adv-x="297" 
d="M0 -5l10 140q46 0 66 9.5t24 36t2 77.5l-18 474h141l20 -484q2 -58 -4.5 -104.5t-31 -79.5t-75 -51t-134.5 -18zM130 843q-10 20 -27 52.5t-34.5 65.5t-31.5 54l58 31q8 -11 20 -32t26 -46t25 -46q11 25 22.5 51.5t21 47t14.5 28.5l58 -24q-5 -10 -15.5 -32.5t-23 -50
t-24 -52.5t-17.5 -41z" />
    <glyph glyph-name="lamVabove-ar.medi" unicode="&#x6b5;" horiz-adv-x="344" 
d="M0 -5l10 140q46 0 66 9.5t24 36t2 77.5l-16 474h142l17 -473q2 -51 12 -77.5t33.5 -36.5t63.5 -10q38 0 54 -19.5t16 -48.5q0 -31 -21 -51.5t-59 -20.5q-52 0 -95 14t-65 57q-28 -42 -72 -56.5t-112 -14.5zM137 843q-10 20 -27 52.5t-34.5 65.5t-31.5 54l58 31
q8 -11 20 -32t26 -46t25 -46q11 25 22.5 51.5t21 47t14.5 28.5l58 -24q-5 -10 -15.5 -32.5t-23 -50t-24 -52.5t-17.5 -41z" />
    <glyph glyph-name="lamVabove-ar.fina" unicode="&#x6b5;" horiz-adv-x="791" 
d="M26 28q0 34 9.5 87t42.5 126l123 -43q-17 -47 -26 -80.5t-9 -65.5q0 -68 49 -108.5t127 -40.5q85 0 130.5 27.5t61.5 86.5t13 155l-20 560h141l15 -473q1 -51 13.5 -77.5t38 -36.5t66.5 -10q37 0 53.5 -19.5t16.5 -48.5q0 -31 -21 -51.5t-59 -20.5q-26 0 -56.5 8.5
t-55.5 27.5q-23 -143 -110 -202.5t-231 -59.5q-85 0 -156 28.5t-113.5 85.5t-42.5 145zM275 568q-10 20 -27 52.5t-34.5 65.5t-31.5 54l58 31q8 -11 20 -32t26 -46t25 -46q11 25 22.5 51.5t21 47t14.5 28.5l58 -24q-5 -10 -15.5 -32.5t-23 -50t-24 -52.5t-17.5 -41z" />
    <glyph glyph-name="lamDotabove-ar.init" unicode="&#x6b6;" horiz-adv-x="297" 
d="M0 -5l10 140q46 0 66 9.5t24 36t2 77.5l-18 474h141l20 -484q2 -58 -4.5 -104.5t-31 -79.5t-75 -51t-134.5 -18zM165 825q-31 0 -52.5 21t-21.5 52t21.5 53t52.5 22q30 0 51.5 -22t21.5 -53t-21.5 -52t-51.5 -21z" />
    <glyph glyph-name="lamDotabove-ar.medi" unicode="&#x6b6;" horiz-adv-x="344" 
d="M0 -5l10 140q46 0 66 9.5t24 36t2 77.5l-16 474h142l17 -473q2 -51 12 -77.5t33.5 -36.5t63.5 -10q38 0 54 -19.5t16 -48.5q0 -31 -21 -51.5t-59 -20.5q-52 0 -95 14t-65 57q-28 -42 -72 -56.5t-112 -14.5zM172 825q-31 0 -52.5 21t-21.5 52t21.5 53t52.5 22
q30 0 51.5 -22t21.5 -53t-21.5 -52t-51.5 -21z" />
    <glyph glyph-name="lamDotabove-ar.fina" unicode="&#x6b6;" horiz-adv-x="791" 
d="M26 28q0 34 9.5 87t42.5 126l123 -43q-17 -47 -26 -80.5t-9 -65.5q0 -68 49 -108.5t127 -40.5q85 0 130.5 27.5t61.5 86.5t13 155l-20 560h141l15 -473q1 -51 13.5 -77.5t38 -36.5t66.5 -10q37 0 53.5 -19.5t16.5 -48.5q0 -31 -21 -51.5t-59 -20.5q-26 0 -56.5 8.5
t-55.5 27.5q-23 -143 -110 -202.5t-231 -59.5q-85 0 -156 28.5t-113.5 85.5t-42.5 145zM310 550q-31 0 -52.5 21t-21.5 52t21.5 53t52.5 22q30 0 51.5 -22t21.5 -53t-21.5 -52t-51.5 -21z" />
    <glyph glyph-name="lamThreedotsabove-ar.init" unicode="&#x6b7;" horiz-adv-x="297" 
d="M0 -5l10 140q46 0 66 9.5t24 36t2 77.5l-18 474h141l20 -484q2 -58 -4.5 -104.5t-31 -79.5t-75 -51t-134.5 -18zM162 927q-26 0 -44 19t-18 45t18 44t44 18t44 -18t18 -44t-18 -45t-44 -19zM82 795q-26 0 -44 19t-18 45t18 44t44 18t44 -18t18 -44t-18 -45t-44 -19z
M237 795q-25 0 -43.5 19t-18.5 45t18.5 44t43.5 18q26 0 44 -18t18 -44t-18 -45t-44 -19z" />
    <glyph glyph-name="lamThreedotsabove-ar.medi" unicode="&#x6b7;" horiz-adv-x="344" 
d="M0 -5l10 140q46 0 66 9.5t24 36t2 77.5l-16 474h142l17 -473q2 -51 12 -77.5t33.5 -36.5t63.5 -10q38 0 54 -19.5t16 -48.5q0 -31 -21 -51.5t-59 -20.5q-52 0 -95 14t-65 57q-28 -42 -72 -56.5t-112 -14.5zM155 927q-26 0 -44 19t-18 45t18 44t44 18t44 -18t18 -44
t-18 -45t-44 -19zM75 795q-26 0 -44 19t-18 45t18 44t44 18t44 -18t18 -44t-18 -45t-44 -19zM230 795q-25 0 -43.5 19t-18.5 45t18.5 44t43.5 18q26 0 44 -18t18 -44t-18 -45t-44 -19z" />
    <glyph glyph-name="lamThreedotsabove-ar.fina" unicode="&#x6b7;" horiz-adv-x="791" 
d="M26 28q0 34 9.5 87t42.5 126l123 -43q-17 -47 -26 -80.5t-9 -65.5q0 -68 49 -108.5t127 -40.5q85 0 130.5 27.5t61.5 86.5t13 155l-20 560h141l15 -473q1 -51 13.5 -77.5t38 -36.5t66.5 -10q37 0 53.5 -19.5t16.5 -48.5q0 -31 -21 -51.5t-59 -20.5q-26 0 -56.5 8.5
t-55.5 27.5q-23 -143 -110 -202.5t-231 -59.5q-85 0 -156 28.5t-113.5 85.5t-42.5 145zM302 682q-26 0 -44 19t-18 45t18 44t44 18t44 -18t18 -44t-18 -45t-44 -19zM222 550q-26 0 -44 19t-18 45t18 44t44 18t44 -18t18 -44t-18 -45t-44 -19zM377 550q-25 0 -43.5 19
t-18.5 45t18.5 44t43.5 18q26 0 44 -18t18 -44t-18 -45t-44 -19z" />
    <glyph glyph-name="lamThreedotsbelow-ar.init" unicode="&#x6b8;" horiz-adv-x="297" 
d="M0 -5l10 140q46 0 66 9.5t24 36t2 77.5l-18 474h141l20 -484q2 -58 -4.5 -104.5t-31 -79.5t-75 -51t-134.5 -18zM61 -137q-20 0 -34.5 14.5t-14.5 34.5t14.5 35t34.5 15q21 0 35.5 -15t14.5 -35t-14.5 -34.5t-35.5 -14.5zM184 -137q-21 0 -35.5 14.5t-14.5 34.5t14.5 35
t35.5 15q20 0 34.5 -15t14.5 -35t-14.5 -34.5t-34.5 -14.5zM121 -241q-21 0 -35 14t-14 35q0 20 14 35t35 15q20 0 35 -15t15 -35q0 -21 -15 -35t-35 -14z" />
    <glyph glyph-name="lamThreedotsbelow-ar.medi" unicode="&#x6b8;" horiz-adv-x="344" 
d="M0 -5l10 140q46 0 66 9.5t24 36t2 77.5l-16 474h142l17 -473q2 -51 12 -77.5t33.5 -36.5t63.5 -10q38 0 54 -19.5t16 -48.5q0 -31 -21 -51.5t-59 -20.5q-52 0 -95 14t-65 57q-28 -42 -72 -56.5t-112 -14.5zM110 -139q-20 0 -34.5 14.5t-14.5 34.5t14.5 35t34.5 15
q21 0 35.5 -15t14.5 -35t-14.5 -34.5t-35.5 -14.5zM233 -139q-21 0 -35.5 14.5t-14.5 34.5t14.5 35t35.5 15q20 0 34.5 -15t14.5 -35t-14.5 -34.5t-34.5 -14.5zM170 -243q-21 0 -35 14t-14 35q0 20 14 35t35 15q20 0 35 -15t15 -35q0 -21 -15 -35t-35 -14z" />
    <glyph glyph-name="lamThreedotsbelow-ar.fina" unicode="&#x6b8;" horiz-adv-x="789" 
d="M26 222q0 34 9.5 87t42.5 126l123 -43q-17 -47 -26 -80.5t-9 -65.5q0 -68 49 -108.5t127 -40.5q85 0 131.5 31.5t63 94.5t10.5 159l-22 350h141l20 -430q4 -86 27.5 -126.5t85.5 -40.5q37 0 53.5 -19.5t16.5 -48.5q0 -31 -21 -51.5t-59 -20.5q-58 0 -105 24.5t-71 67.5
q-39 -58 -105 -91t-170 -33q-85 0 -156 28.5t-113.5 85.5t-42.5 145zM287 -165q-20 0 -34.5 14.5t-14.5 34.5t14.5 35t34.5 15q21 0 35.5 -15t14.5 -35t-14.5 -34.5t-35.5 -14.5zM410 -165q-21 0 -35.5 14.5t-14.5 34.5t14.5 35t35.5 15q20 0 34.5 -15t14.5 -35t-14.5 -34.5
t-34.5 -14.5zM347 -269q-21 0 -35 14t-14 35q0 20 14 35t35 15q20 0 35 -15t15 -35q0 -21 -15 -35t-35 -14z" />
    <glyph glyph-name="noonDotbelow-ar.init" unicode="&#x6b9;" horiz-adv-x="317" 
d="M0 -5l10 140q65 0 91 14.5t26 61.5q0 28 -7.5 67t-19.5 80.5t-24 77.5l138 38q12 -34 24 -79t20.5 -93t8.5 -91q0 -68 -21 -110.5t-58.5 -65.5t-85.5 -31.5t-102 -8.5zM144 557q-31 0 -52.5 21t-21.5 52t21.5 53t52.5 22q30 0 51.5 -22t21.5 -53t-21.5 -52t-51.5 -21z
M123 -235q-29 0 -49.5 20t-20.5 49t20.5 50.5t49.5 21.5q28 0 49 -21.5t21 -50.5t-21 -49t-49 -20z" />
    <glyph glyph-name="noonDotbelow-ar.medi" unicode="&#x6b9;" horiz-adv-x="384" 
d="M0 -5l10 140q38 0 60.5 7t36 28.5t23 63.5t19.5 112l131 -22q-4 -23 -9 -55t-5 -59q0 -24 10.5 -41t38 -25.5t79.5 -8.5q38 0 54 -19.5t16 -48.5q0 -31 -20.5 -51.5t-59.5 -20.5q-80 0 -124.5 17t-63.5 61q-37 -52 -87.5 -65t-108.5 -13zM214 438q-31 0 -52.5 21
t-21.5 52t21.5 53t52.5 22q30 0 51.5 -22t21.5 -53t-21.5 -52t-51.5 -21zM178 -235q-29 0 -49.5 20t-20.5 49t20.5 50.5t49.5 21.5q28 0 49 -21.5t21 -50.5t-21 -49t-49 -20z" />
    <glyph glyph-name="noonDotbelow-ar.fina" unicode="&#x6b9;" horiz-adv-x="805" 
d="M26 188q0 34 9.5 87t42.5 126l123 -43q-17 -47 -26 -80.5t-9 -65.5q0 -68 46 -105.5t135 -37.5q80 0 125 23t63 61.5t18 86.5q0 41 -14.5 99t-37.5 128l140 36q9 -39 16.5 -68t16 -57t20.5 -65q20 -61 34.5 -100.5t33 -58.5t53.5 -19q37 0 53.5 -19.5t16.5 -48.5
q0 -31 -21 -51.5t-59 -20.5q-42 0 -83.5 15.5t-75.5 59.5q-41 -68 -118.5 -104.5t-184.5 -36.5q-89 0 -161 26.5t-114 83.5t-42 149zM352 588q-31 0 -52.5 21t-21.5 52t21.5 53t52.5 22q30 0 51.5 -22t21.5 -53t-21.5 -52t-51.5 -21zM343 -266q-29 0 -49.5 20t-20.5 49
t20.5 50.5t49.5 21.5q28 0 49 -21.5t21 -50.5t-21 -49t-49 -20z" />
    <glyph glyph-name="noonRing-ar.init" unicode="&#x6bc;" horiz-adv-x="359" 
d="M0 -5l10 140q60 0 92 6t44.5 22.5t12.5 47.5q0 28 -7.5 67t-19.5 80.5t-24 77.5l138 38q12 -34 24.5 -79t20.5 -93t8 -91q0 -68 -22 -110.5t-61.5 -65.5t-94.5 -31.5t-121 -8.5zM125 -132q-42 0 -71 29.5t-29 70.5t29 70.5t71 29.5q41 0 70.5 -29.5t29.5 -70.5
t-29.5 -70.5t-70.5 -29.5zM124 -66q16 0 26.5 9.5t10.5 24.5q0 16 -10.5 25.5t-26.5 9.5q-15 0 -25.5 -10t-10.5 -25t10.5 -24.5t25.5 -9.5zM184 557q-31 0 -52.5 21t-21.5 52t21.5 53t52.5 22q30 0 51.5 -22t21.5 -53t-21.5 -52t-51.5 -21z" />
    <glyph glyph-name="noonRing-ar.medi" unicode="&#x6bc;" horiz-adv-x="409" 
d="M0 -5l10 140q36 0 62 7t44 28.5t30.5 63.5t22.5 112l131 -22q-4 -23 -9 -55t-5 -59q0 -36 30 -55.5t103 -19.5q37 0 53.5 -19.5t16.5 -48.5q0 -31 -20.5 -51.5t-59.5 -20.5q-70 0 -119.5 18t-72.5 64q-27 -36 -63.5 -53.5t-76 -23t-77.5 -5.5zM139 -122q-42 0 -71 29.5
t-29 70.5t29 70.5t71 29.5q41 0 70.5 -29.5t29.5 -70.5t-29.5 -70.5t-70.5 -29.5zM138 -56q16 0 26.5 9.5t10.5 24.5q0 16 -10.5 25.5t-26.5 9.5q-15 0 -25.5 -10t-10.5 -25t10.5 -24.5t25.5 -9.5zM234 438q-31 0 -52.5 21t-21.5 52t21.5 53t52.5 22q30 0 51.5 -22t21.5 -53
t-21.5 -52t-51.5 -21z" />
    <glyph glyph-name="noonRing-ar.fina" unicode="&#x6bc;" horiz-adv-x="805" 
d="M26 188q0 34 9.5 87t42.5 126l123 -43q-17 -47 -26 -80.5t-9 -65.5q0 -68 46 -105.5t135 -37.5q80 0 125 23t63 61.5t18 86.5q0 41 -14.5 99t-37.5 128l140 36q9 -39 16.5 -68t16 -57t20.5 -65q20 -61 34.5 -100.5t33 -58.5t53.5 -19q37 0 53.5 -19.5t16.5 -48.5
q0 -31 -21 -51.5t-59 -20.5q-42 0 -83.5 15.5t-75.5 59.5q-41 -68 -118.5 -104.5t-184.5 -36.5q-89 0 -161 26.5t-114 83.5t-42 149zM352 588q-31 0 -52.5 21t-21.5 52t21.5 53t52.5 22q30 0 51.5 -22t21.5 -53t-21.5 -52t-51.5 -21zM354 -223q-42 0 -71 29.5t-29 70.5
t29 70.5t71 29.5q41 0 70.5 -29.5t29.5 -70.5t-29.5 -70.5t-70.5 -29.5zM353 -157q16 0 26.5 9.5t10.5 24.5q0 16 -10.5 25.5t-26.5 9.5q-15 0 -25.5 -10t-10.5 -25t10.5 -24.5t25.5 -9.5z" />
    <glyph glyph-name="noonThreedotsabove-ar.init" unicode="&#x6bd;" horiz-adv-x="317" 
d="M0 -5l10 140q65 0 91 14.5t26 61.5q0 28 -7.5 67t-19.5 80.5t-24 77.5l138 38q12 -34 24 -79t20.5 -93t8.5 -91q0 -68 -21 -110.5t-58.5 -65.5t-85.5 -31.5t-102 -8.5zM151 689q-26 0 -44 19t-18 45t18 44t44 18t44 -18t18 -44t-18 -45t-44 -19zM71 557q-26 0 -44 19
t-18 45t18 44t44 18t44 -18t18 -44t-18 -45t-44 -19zM226 557q-25 0 -43.5 19t-18.5 45t18.5 44t43.5 18q26 0 44 -18t18 -44t-18 -45t-44 -19z" />
    <glyph glyph-name="noonThreedotsabove-ar.medi" unicode="&#x6bd;" horiz-adv-x="384" 
d="M0 -5l10 140q38 0 60.5 7t36 28.5t23 63.5t19.5 112l131 -22q-4 -23 -9 -55t-5 -59q0 -24 10.5 -41t38 -25.5t79.5 -8.5q38 0 54 -19.5t16 -48.5q0 -31 -20.5 -51.5t-59.5 -20.5q-80 0 -124.5 17t-63.5 61q-37 -52 -87.5 -65t-108.5 -13zM221 570q-26 0 -44 19t-18 45
t18 44t44 18t44 -18t18 -44t-18 -45t-44 -19zM141 438q-26 0 -44 19t-18 45t18 44t44 18t44 -18t18 -44t-18 -45t-44 -19zM296 438q-25 0 -43.5 19t-18.5 45t18.5 44t43.5 18q26 0 44 -18t18 -44t-18 -45t-44 -19z" />
    </font>
</defs>
</svg>
