<?xml version="1.0" standalone="no"?>
<!DOCTYPE svg PUBLIC "-//W3C//DTD SVG 1.1//EN" "http://www.w3.org/Graphics/SVG/1.1/DTD/svg11.dtd" >
<svg xmlns="http://www.w3.org/2000/svg" xmlns:xlink="http://www.w3.org/1999/xlink" version="1.1">
<metadata>
Created by FontForge 20170731 at Wed Sep 20 00:59:34 2017
 By Aleksey,,,
Copyright 2016 Google Inc. All Rights Reserved.
</metadata>
<defs>
<font id="NotoSansArabicUI-Black" horiz-adv-x="0" >
  <font-face 
    font-family="Noto Sans Arabic UI Bk"
    font-weight="900"
    font-stretch="normal"
    units-per-em="1000"
    panose-1="2 11 10 2 4 5 4 2 2 4"
    ascent="800"
    descent="-200"
    bbox="-112 -292 2825 1054"
    underline-thickness="50"
    underline-position="-175"
    unicode-range="U+0020-FEFC"
  />
<missing-glyph horiz-adv-x="600" 
d="M94 0v714h411v-714h-411zM145 51h309v612h-309v-612z" />
    <glyph glyph-name="uniFD82" unicode="&#xfee0;&#xfea4;&#xfef0;" horiz-adv-x="1921" arabic-form="final" 
d="M1569 -5l10 168q40 0 58 9t22.5 36.5t2.5 83.5l-15 468h173l17 -467q2 -55 10 -83t28 -37.5t56 -9.5q48 0 69 -24t21 -58q0 -38 -25 -62t-75 -24q-47 0 -92.5 15t-71.5 60q-32 -41 -77.5 -58t-110.5 -17zM841 -5l10 168q127 0 237.5 25.5t189.5 80.5q-50 16 -105.5 25
t-119.5 9q-16 0 -41 -1t-50.5 -3.5t-43.5 -6.5l-22 176q30 8 72 11.5t75 3.5q69 0 126.5 -17t105 -40t88 -40t75.5 -17h41l21 -152q-21 -2 -40 -8t-37 -16q23 -17 61 -23.5t95 -6.5q48 0 69 -24t21 -58q0 -38 -25 -62t-75 -24q-98 0 -160.5 28.5t-95.5 101.5
q-47 -31 -109.5 -61t-150.5 -49.5t-212 -19.5zM24 35q0 27 4 58t16 72t36 100l155 -55q-14 -39 -21.5 -63.5t-10 -42.5t-2.5 -38q0 -33 18 -62t61.5 -47t122.5 -18q70 0 113 10.5t66 25.5t31.5 30t8.5 23q0 17 -29.5 34.5t-85.5 37.5l47 144q74 -33 151.5 -57t145.5 -24
q48 0 69 -24t21 -58q0 -38 -25.5 -62t-74.5 -24h-53q1 -5 1.5 -9.5t0.5 -9.5q0 -30 -23.5 -65.5t-72 -68t-124 -53t-179.5 -20.5q-109 0 -191.5 28.5t-129 87.5t-46.5 150z" />
    <glyph glyph-name="uniFDF2" unicode="&#x627;&#xfedf;&#xfee0;&#xfeea;" horiz-adv-x="1619" arabic-form="isolated" 
d="M611 -5q-84 0 -141.5 20.5t-87.5 67.5q-70 -11 -132.5 -5.5t-111 28t-76 64.5t-27.5 105q0 75 38 130t105.5 92t154.5 59l-4 78h173l17 -370q2 -42 11.5 -63.5t31 -29.5t59.5 -8q40 0 58 9t22.5 36.5t2.5 83.5l-9 326h179l11 -325q2 -55 9.5 -83t29.5 -37.5t69 -9.5
q40 0 58.5 9t22.5 36.5t2 83.5l-19 468h179l21 -490q3 -61 -4.5 -111.5t-34.5 -87t-83.5 -56.5t-151.5 -20q-53 0 -104 15t-80 61q-31 -42 -77 -59t-111 -17zM1381 0l-21 760h178l21 -760h-178zM347 242l-7 143q-58 -11 -96 -36t-38 -61q0 -31 41 -43.5t100 -2.5zM689 638
q-47 0 -61 30t-14 73q0 11 1.5 23.5t4.5 28.5l72 14q-2 -17 -3.5 -31.5t-1.5 -25.5q0 -19 4 -26t12 -7q12 0 17.5 15t6.5 59v30l60 18v-61q0 -17 4 -24t14 -7q12 0 16 9.5t4 25.5q0 17 -4 34.5t-10 34.5l67 14q10 -20 16.5 -44t6.5 -44q0 -46 -20 -76t-68 -30q-13 0 -26.5 6
t-23.5 19q-10 -29 -30.5 -43.5t-43.5 -14.5zM692 880l-6 173h115l6 -173h-115z" />
    <glyph glyph-name="uniFEF5" unicode="&#xfedf;&#xfe82;" horiz-adv-x="667" arabic-form="isolated" 
d="M383 560q0 18 -3.5 50t-8.5 65.5t-9 54.5l167 20q3 -20 7.5 -51t7.5 -65t3 -66q0 -106 -43 -191q43 -44 65 -81t30 -69.5t8 -63.5q0 -25 -10 -53t-32 -53t-57.5 -41t-86.5 -16h-318v187q124 82 190 156q-52 39 -118 81.5t-140 84.5l77 144q82 -47 147 -88.5t115 -78.5
q9 36 9 74zM278 152h82q51 0 67 11t16 29q0 19 -41 60q-54 -52 -124 -100zM504 812q-30 0 -54 10.5t-44 20.5t-37 10q-18 0 -32.5 -9t-30.5 -25l-52 52q59 72 115 72q25 0 46 -10l42 -20t47 -10q16 0 30 5.5t34 17.5l39 -65q-38 -33 -62.5 -41t-40.5 -8z" />
    <glyph glyph-name="uniFEF6" unicode="&#xfee0;&#xfe82;" horiz-adv-x="698" arabic-form="final" 
d="M134 -5q-27 0 -55.5 4.5t-38.5 6.5l19 173q67 -9 131.5 -8t115.5 24q-41 54 -105.5 129.5t-165.5 179.5l113 119q51 -54 100.5 -111t91.5 -110t70 -96q17 48 17 113v0l-17 341h175l21 -489q2 -46 15.5 -69t37 -31t54.5 -8q35 0 60 -20t25 -64q0 -37 -26 -60.5t-65 -23.5
q-99 0 -159 40t-88 99q-28 -49 -69.5 -77t-88 -41.5t-90.5 -17t-78 -3.5zM564 812q-30 0 -54 10.5t-44 20.5t-37 10q-18 0 -32.5 -9t-30.5 -25l-52 52q59 72 115 72q25 0 46 -10l42 -20t47 -10q16 0 30 5.5t34 17.5l39 -65q-38 -33 -62.5 -41t-40.5 -8z" />
    <glyph glyph-name="uniFEF7" unicode="&#xfedf;&#xfe84;" horiz-adv-x="667" arabic-form="isolated" 
d="M383 560q0 18 -3.5 50t-8.5 65.5t-9 54.5l167 20q3 -20 7.5 -51t7.5 -65t3 -66q0 -106 -43 -191q43 -44 65 -81t30 -69.5t8 -63.5q0 -25 -10 -53t-32 -53t-57.5 -41t-86.5 -16h-318v187q124 82 190 156q-52 39 -118 81.5t-140 84.5l77 144q82 -47 147 -88.5t115 -78.5
q9 36 9 74zM278 152h82q51 0 67 11t16 29q0 19 -41 60q-54 -52 -124 -100zM334 785l-18 74q28 4 46 7q-17 14 -28.5 34.5t-11.5 44.5q0 38 17 61.5t43 34t54 10.5q17 0 31 -2t25 -6l-8 -70q-10 2 -20.5 4t-22.5 2q-20 0 -30.5 -9t-10.5 -23q0 -23 17 -37.5t34 -20.5
q36 10 68 22l22 -71q-40 -14 -95.5 -29.5t-111.5 -25.5z" />
    <glyph glyph-name="uniFEF8" unicode="&#xfee0;&#xfe84;" horiz-adv-x="698" arabic-form="final" 
d="M134 -5q-27 0 -55.5 4.5t-38.5 6.5l19 173q67 -9 131.5 -8t115.5 24q-41 54 -105.5 129.5t-165.5 179.5l113 119q51 -54 100.5 -111t91.5 -110t70 -96q17 48 17 113v0l-17 341h175l21 -489q2 -46 15.5 -69t37 -31t54.5 -8q35 0 60 -20t25 -64q0 -37 -26 -60.5t-65 -23.5
q-99 0 -159 40t-88 99q-28 -49 -69.5 -77t-88 -41.5t-90.5 -17t-78 -3.5zM394 785l-18 74q28 4 46 7q-17 14 -28.5 34.5t-11.5 44.5q0 38 17 61.5t43 34t54 10.5q17 0 31 -2t25 -6l-8 -70q-10 2 -20.5 4t-22.5 2q-20 0 -30.5 -9t-10.5 -23q0 -23 17 -37.5t34 -20.5
q36 10 68 22l22 -71q-40 -14 -95.5 -29.5t-111.5 -25.5z" />
    <glyph glyph-name="uniFEF9" unicode="&#xfedf;&#xfe88;" horiz-adv-x="667" arabic-form="isolated" 
d="M383 560q0 18 -3.5 50t-8.5 65.5t-9 54.5l167 20q3 -20 7.5 -51t7.5 -65t3 -66q0 -106 -43 -191q43 -44 65 -81t30 -69.5t8 -63.5q0 -25 -10 -53t-32 -53t-57.5 -41t-86.5 -16h-318v187q124 82 190 156q-52 39 -118 81.5t-140 84.5l77 144q82 -47 147 -88.5t115 -78.5
q9 36 9 74zM278 152h82q51 0 67 11t16 29q0 19 -41 60q-54 -52 -124 -100zM98.249 -269.714l-15.2998 62.8975q23.7998 3.40039 39.0986 5.9502q-14.4492 11.8994 -24.2236 29.3242q-9.77539 17.4248 -9.77539 37.8242q0 32.2988 14.4502 52.2734
q14.4492 19.9746 36.5488 28.8994q22.0996 8.92383 45.8984 8.92383q14.4502 0 26.3496 -1.69922q11.8994 -1.7002 21.249 -5.09961l-6.7998 -59.499q-8.5 1.7002 -17.4248 3.40039q-8.92383 1.7002 -19.124 1.7002q-16.999 0 -25.9238 -7.65039
q-8.9248 -7.64941 -8.9248 -19.5488q0 -19.5498 14.4492 -31.875q14.4492 -12.3242 28.8994 -17.4238q30.5986 8.5 57.7979 18.6992l18.6992 -60.3486q-33.998 -11.8994 -81.1719 -25.0742t-94.7725 -21.6738z" />
    <glyph glyph-name="uniFEFA" unicode="&#xfee0;&#xfe88;" horiz-adv-x="698" arabic-form="final" 
d="M134 -5q-27 0 -55.5 4.5t-38.5 6.5l19 173q67 -9 131.5 -8t115.5 24q-41 54 -105.5 129.5t-165.5 179.5l113 119q51 -54 100.5 -111t91.5 -110t70 -96q17 48 17 113v0l-17 341h175l21 -489q2 -46 15.5 -69t37 -31t54.5 -8q35 0 60 -20t25 -64q0 -37 -26 -60.5t-65 -23.5
q-99 0 -159 40t-88 99q-28 -49 -69.5 -77t-88 -41.5t-90.5 -17t-78 -3.5zM98.249 -269.714l-15.2998 62.8975q23.7998 3.40039 39.0986 5.9502q-14.4492 11.8994 -24.2236 29.3242q-9.77539 17.4248 -9.77539 37.8242q0 32.2988 14.4502 52.2734
q14.4492 19.9746 36.5488 28.8994q22.0996 8.92383 45.8984 8.92383q14.4502 0 26.3496 -1.69922q11.8994 -1.7002 21.249 -5.09961l-6.7998 -59.499q-8.5 1.7002 -17.4248 3.40039q-8.92383 1.7002 -19.124 1.7002q-16.999 0 -25.9238 -7.65039
q-8.9248 -7.64941 -8.9248 -19.5488q0 -19.5498 14.4492 -31.875q14.4492 -12.3242 28.8994 -17.4238q30.5986 8.5 57.7979 18.6992l18.6992 -60.3486q-33.998 -11.8994 -81.1719 -25.0742t-94.7725 -21.6738z" />
    <glyph glyph-name="uniFEFB" unicode="&#xfedf;&#xfe8e;" horiz-adv-x="667" arabic-form="isolated" 
d="M383 560q0 18 -3.5 50t-8.5 65.5t-9 54.5l167 20q3 -20 7.5 -51t7.5 -65t3 -66q0 -106 -43 -191q43 -44 65 -81t30 -69.5t8 -63.5q0 -25 -10 -53t-32 -53t-57.5 -41t-86.5 -16h-318v187q124 82 190 156q-52 39 -118 81.5t-140 84.5l77 144q82 -47 147 -88.5t115 -78.5
q9 36 9 74zM278 152h82q51 0 67 11t16 29q0 19 -41 60q-54 -52 -124 -100z" />
    <glyph glyph-name="uniFEFC" unicode="&#xfee0;&#xfe8e;" horiz-adv-x="698" arabic-form="final" 
d="M134 -5q-27 0 -55.5 4.5t-38.5 6.5l19 173q67 -9 131.5 -8t115.5 24q-41 54 -105.5 129.5t-165.5 179.5l113 119q51 -54 100.5 -111t91.5 -110t70 -96q17 48 17 113v0l-17 341h175l21 -489q2 -46 15.5 -69t37 -31t54.5 -8q35 0 60 -20t25 -64q0 -37 -26 -60.5t-65 -23.5
q-99 0 -159 40t-88 99q-28 -49 -69.5 -77t-88 -41.5t-90.5 -17t-78 -3.5z" />
    <glyph glyph-name="lam_alefWasla-ar" unicode="&#xfedf;&#xfb51;" horiz-adv-x="667" 
d="M383 560q0 18 -3.5 50t-8.5 65.5t-9 54.5l167 20q3 -20 7.5 -51t7.5 -65t3 -66q0 -106 -43 -191q43 -44 65 -81t30 -69.5t8 -63.5q0 -25 -10 -53t-32 -53t-57.5 -41t-86.5 -16h-318v187q124 82 190 156q-52 39 -118 81.5t-140 84.5l77 144q82 -47 147 -88.5t115 -78.5
q9 36 9 74zM278 152h82q51 0 67 11t16 29q0 19 -41 60q-54 -52 -124 -100zM425 802q-22 0 -52.5 2t-58 5.5t-40.5 5.5l7 75q7 -1 16 -2t19 -2q13 32 36.5 65.5t56.5 56.5t73 23q47 0 78 -30t31 -77q0 -35 -13 -62.5t-49 -43.5t-104 -16zM480 953q-15 0 -37.5 -18t-39.5 -57
h22q54 0 71 12t17 28q0 17 -10 26t-23 9z" />
    <glyph glyph-name="lam_alefWasla-ar.fina" unicode="&#xfee0;&#xfb51;" horiz-adv-x="698" 
d="M134 -5q-27 0 -55.5 4.5t-38.5 6.5l19 173q67 -9 131.5 -8t115.5 24q-41 54 -105.5 129.5t-165.5 179.5l113 119q51 -54 100.5 -111t91.5 -110t70 -96q17 48 17 113v0l-17 341h175l21 -489q2 -46 15.5 -69t37 -31t54.5 -8q35 0 60 -20t25 -64q0 -37 -26 -60.5t-65 -23.5
q-99 0 -159 40t-88 99q-28 -49 -69.5 -77t-88 -41.5t-90.5 -17t-78 -3.5zM485 802q-22 0 -52.5 2t-58 5.5t-40.5 5.5l7 75q7 -1 16 -2t19 -2q13 32 36.5 65.5t56.5 56.5t73 23q47 0 78 -30t31 -77q0 -35 -13 -62.5t-49 -43.5t-104 -16zM540 953q-15 0 -37.5 -18t-39.5 -57
h22q54 0 71 12t17 28q0 17 -10 26t-23 9z" />
    <glyph glyph-name="yehKashmiri-ar.init" unicode="&#x620;" horiz-adv-x="403" 
d="M0 -5l10 168q63 0 96.5 9t45.5 27.5t12 46.5q0 32 -8 72.5t-19 82t-22 76.5l161 43q12 -35 25 -80.5t22.5 -96.5t9.5 -103q0 -80 -27.5 -128.5t-74.5 -73.5t-107 -34t-124 -9zM127 -137q-44 0 -75 31.5t-31 75.5t31 75.5t75 31.5q45 0 76 -31.5t31 -75.5t-31 -75.5
t-76 -31.5zM127 -62q14 0 24 9t10 23q0 15 -10 24t-24 9t-24 -9.5t-10 -23.5t10 -23t24 -9z" />
    <glyph glyph-name="yehKashmiri-ar.medi" unicode="&#x620;" horiz-adv-x="445" 
d="M0 -5l10 168q42 0 68 6.5t42.5 28t26 64t18.5 114.5l165 -26q-2 -21 -6 -50.5t-4 -58.5q0 -27 11 -44t40 -25.5t84 -8.5q48 0 69 -24t21 -58q0 -38 -25 -62t-75 -24q-89 0 -139.5 20.5t-72.5 63.5q-29 -38 -66.5 -56t-80 -23t-86.5 -5zM148 -128q-44 0 -75 31.5t-31 75.5
t31 75.5t75 31.5q45 0 76 -31.5t31 -75.5t-31 -75.5t-76 -31.5zM148 -53q14 0 24 9t10 23q0 15 -10 24t-24 9t-24 -9.5t-10 -23.5t10 -23t24 -9z" />
    <glyph glyph-name="yehKashmiri-ar.fina" unicode="&#x620;" horiz-adv-x="891" 
d="M24 233q0 27 4 58t16 72t36 100l155 -55q-14 -39 -21.5 -63.5t-10 -42.5t-2.5 -38q0 -33 17 -60t56.5 -43t108.5 -16q95 0 134.5 13.5t39.5 32.5q0 17 -21 37t-79 61l90 132q79 -78 134.5 -128.5t95 -78.5t69 -39.5t55.5 -11.5q37 0 63.5 -16.5t26.5 -65.5
q0 -15 -13.5 -35.5t-36 -35.5t-50.5 -15q-61 0 -111.5 26.5t-94.5 73.5q-33 -46 -111.5 -83t-202.5 -37q-99 0 -177.5 26.5t-124 83.5t-45.5 148zM372 -191q-44 0 -75 31.5t-31 75.5t31 75.5t75 31.5q45 0 76 -31.5t31 -75.5t-31 -75.5t-76 -31.5zM372 -116q14 0 24 9t10 23
q0 15 -10 24t-24 9t-24 -9.5t-10 -23.5t10 -23t24 -9z" />
    <glyph glyph-name="kehehTwodotshorizontalabove-ar.init" unicode="&#x63b;" horiz-adv-x="493" 
d="M0 -5l10 168h154q30 0 41.5 9.5t11.5 31.5q0 26 -24.5 56.5t-56.5 59.5q-26 24 -52.5 47t-44 41t-17.5 30q0 15 2.5 37t7 41.5t11.5 27.5q17 19 59.5 46t98 56t115 56.5t111.5 47.5l66 -148q-90 -37 -159.5 -69.5t-117.5 -60.5q89 -75 137.5 -152t48.5 -139
q0 -48 -28 -90.5t-88 -69t-155 -26.5h-131zM250.903 743.508q-23.1006 0 -39.2002 16.0996q-16.1006 16.1006 -16.1006 39.2012t16.1006 39.9004q16.0996 16.8008 39.2002 16.8008q22.4004 0 38.501 -16.8008q16.1006 -16.7998 16.1006 -39.9004t-16.1006 -39.2012
q-16.1006 -16.0996 -38.501 -16.0996zM124.201 680.507q-23.1006 0 -39.2002 16.0996q-16.1006 16.1006 -16.1006 39.2012t16.1006 39.9004q16.0996 16.8008 39.2002 16.8008q22.4004 0 38.501 -16.8008q16.1006 -16.7998 16.1006 -39.9004t-16.1006 -39.2012
q-16.1006 -16.0996 -38.501 -16.0996z" />
    <glyph glyph-name="kehehTwodotshorizontalabove-ar.medi" unicode="&#x63b;" horiz-adv-x="532" 
d="M0 -5l10 168h141q29 0 47.5 6.5t18.5 34.5q0 21 -19.5 47.5t-48.5 54.5t-58 54.5t-48.5 48t-19.5 34.5q0 37 5.5 64t15.5 37q23 26 78 58.5t133.5 70t171.5 77.5l66 -148q-111 -47 -175.5 -77.5t-105.5 -56.5q47 -43 95.5 -100t81.5 -124q17 -36 35.5 -53t46 -22.5
t71.5 -5.5q48 0 69 -24t21 -58q0 -38 -25 -62t-75 -24q-75 0 -124 16t-74 53q-33 -33 -83.5 -51t-119.5 -18h-131zM261.903 745.508q-23.1006 0 -39.2002 16.0996q-16.1006 16.1006 -16.1006 39.2012t16.1006 39.9004q16.0996 16.8008 39.2002 16.8008
q22.4004 0 38.501 -16.8008q16.1006 -16.7998 16.1006 -39.9004t-16.1006 -39.2012q-16.1006 -16.0996 -38.501 -16.0996zM135.201 682.507q-23.1006 0 -39.2002 16.0996q-16.1006 16.1006 -16.1006 39.2012t16.1006 39.9004q16.0996 16.8008 39.2002 16.8008
q22.4004 0 38.501 -16.8008q16.1006 -16.7998 16.1006 -39.9004t-16.1006 -39.2012q-16.1006 -16.0996 -38.501 -16.0996z" />
    <glyph glyph-name="kehehTwodotshorizontalabove-ar.fina" unicode="&#x63b;" horiz-adv-x="1020" 
d="M454 -21q-126 0 -208 20t-128 54t-65 77t-19 89q0 59 14 113.5t26 92.5l147 -35q-7 -31 -13.5 -62.5t-6.5 -59.5q0 -36 25.5 -63t86.5 -42.5t167 -15.5q70 0 120.5 2.5t77.5 14.5t27 40q0 20 -19.5 46t-48.5 55t-58.5 55.5t-49 48t-19.5 33.5q0 38 5 65t16 38
q36 38 133 88.5t250 116.5l66 -148q-42 -18 -91.5 -39.5t-99 -45t-90.5 -49.5q45 -41 91 -94t87 -131q19 -37 37.5 -53.5t45.5 -21.5t72 -5q47 0 67.5 -24t20.5 -58q0 -38 -24.5 -62t-73.5 -24q-65 0 -118.5 13t-82.5 56q-39 -40 -97 -58t-127 -22.5t-143 -4.5z
M757.903 761.508q-23.1006 0 -39.2002 16.0996q-16.1006 16.1006 -16.1006 39.2012t16.1006 39.9004q16.0996 16.8008 39.2002 16.8008q22.4004 0 38.501 -16.8008q16.1006 -16.7998 16.1006 -39.9004t-16.1006 -39.2012q-16.1006 -16.0996 -38.501 -16.0996z
M631.201 698.507q-23.1006 0 -39.2002 16.0996q-16.1006 16.1006 -16.1006 39.2012t16.1006 39.9004q16.0996 16.8008 39.2002 16.8008q22.4004 0 38.501 -16.8008q16.1006 -16.7998 16.1006 -39.9004t-16.1006 -39.2012q-16.1006 -16.0996 -38.501 -16.0996z" />
    <glyph glyph-name="kehehThreedotsbelow-ar.init" unicode="&#x63c;" horiz-adv-x="493" 
d="M0 -5l10 168h154q30 0 41.5 9.5t11.5 31.5q0 26 -24.5 56.5t-56.5 59.5q-26 24 -52.5 47t-44 41t-17.5 30q0 15 2.5 37t7 41.5t11.5 27.5q17 19 59.5 46t98 56t115 56.5t111.5 47.5l66 -148q-90 -37 -159.5 -69.5t-117.5 -60.5q89 -75 137.5 -152t48.5 -139
q0 -48 -28 -90.5t-88 -69t-155 -26.5h-131zM153 -132q-20 0 -34.5 14t-14.5 36q0 20 14.5 35.5t34.5 15.5q22 0 36 -15.5t14 -35.5q0 -22 -14 -36t-36 -14zM283 -132q-22 0 -36 14t-14 36q0 20 14 35.5t36 15.5q21 0 35 -15.5t14 -35.5q0 -22 -14 -36t-35 -14zM216 -238
q-21 0 -35 14.5t-14 34.5t14 36t35 16t35.5 -16t14.5 -36t-14.5 -34.5t-35.5 -14.5z" />
    <glyph glyph-name="kehehThreedotsbelow-ar.medi" unicode="&#x63c;" horiz-adv-x="532" 
d="M0 -5l10 168h141q29 0 47.5 6.5t18.5 34.5q0 21 -19.5 47.5t-48.5 54.5t-58 54.5t-48.5 48t-19.5 34.5q0 37 5.5 64t15.5 37q23 26 78 58.5t133.5 70t171.5 77.5l66 -148q-111 -47 -175.5 -77.5t-105.5 -56.5q47 -43 95.5 -100t81.5 -124q17 -36 35.5 -53t46 -22.5
t71.5 -5.5q48 0 69 -24t21 -58q0 -38 -25 -62t-75 -24q-75 0 -124 16t-74 53q-33 -33 -83.5 -51t-119.5 -18h-131zM153 -132q-20 0 -34.5 14t-14.5 36q0 20 14.5 35.5t34.5 15.5q22 0 36 -15.5t14 -35.5q0 -22 -14 -36t-36 -14zM283 -132q-22 0 -36 14t-14 36q0 20 14 35.5
t36 15.5q21 0 35 -15.5t14 -35.5q0 -22 -14 -36t-35 -14zM216 -238q-21 0 -35 14.5t-14 34.5t14 36t35 16t35.5 -16t14.5 -36t-14.5 -34.5t-35.5 -14.5z" />
    <glyph glyph-name="kehehThreedotsbelow-ar.fina" unicode="&#x63c;" horiz-adv-x="1020" 
d="M454 -21q-126 0 -208 20t-128 54t-65 77t-19 89q0 59 14 113.5t26 92.5l147 -35q-7 -31 -13.5 -62.5t-6.5 -59.5q0 -36 25.5 -63t86.5 -42.5t167 -15.5q70 0 120.5 2.5t77.5 14.5t27 40q0 20 -19.5 46t-48.5 55t-58.5 55.5t-49 48t-19.5 33.5q0 38 5 65t16 38
q36 38 133 88.5t250 116.5l66 -148q-42 -18 -91.5 -39.5t-99 -45t-90.5 -49.5q45 -41 91 -94t87 -131q19 -37 37.5 -53.5t45.5 -21.5t72 -5q47 0 67.5 -24t20.5 -58q0 -38 -24.5 -62t-73.5 -24q-65 0 -118.5 13t-82.5 56q-39 -40 -97 -58t-127 -22.5t-143 -4.5zM408 -153
q-20 0 -34.5 14t-14.5 36q0 20 14.5 35.5t34.5 15.5q22 0 36 -15.5t14 -35.5q0 -22 -14 -36t-36 -14zM538 -153q-22 0 -36 14t-14 36q0 20 14 35.5t36 15.5q21 0 35 -15.5t14 -35.5q0 -22 -14 -36t-35 -14zM471 -259q-21 0 -35 14.5t-14 34.5t14 36t35 16t35.5 -16t14.5 -36
t-14.5 -34.5t-35.5 -14.5z" />
    <glyph glyph-name="yehVinverted-farsi.init" unicode="&#x63d;" horiz-adv-x="345" 
d="M0 -5l10 168q61 0 86 18.5t25 60.5q0 32 -8.5 73.5t-20.5 84t-22 77.5l161 43q12 -35 25.5 -81.5t23.5 -98.5t10 -104q0 -80 -27 -127.5t-70.5 -72.5t-94 -33t-98.5 -8zM98 825l80 6q11 -20 28.5 -54l35 -68t29.5 -55l-66 -35l-18.5 37t-24 49.5t-23.5 48.5
q-11 -27 -23 -56t-21.5 -51.5t-13.5 -30.5l-66 28q4 10 15 33.5t24.5 51.5t25.5 54t18 42zM208 -237q-31 0 -51.5 21t-20.5 52t20.5 52t51.5 21t53 -21t22 -52t-22 -52t-53 -21zM30 -237q-31 0 -52 21t-21 52t21 52t52 21q30 0 52 -21t22 -52t-22 -52t-52 -21z" />
    <glyph glyph-name="yehVinverted-farsi.medi" unicode="&#x63d;" horiz-adv-x="410" 
d="M0 -5l10 168q34 0 56.5 6.5t36.5 28t23.5 64t18.5 114.5l165 -26q-2 -21 -6 -50.5t-4 -58.5q0 -40 26 -59t94 -19q48 0 69 -24t21 -58q0 -38 -25 -62t-75 -24q-79 0 -127 20.5t-70 63.5q-28 -38 -64 -56t-74.5 -23t-74.5 -5zM158 697l80 6q11 -20 28.5 -54l35 -68
t29.5 -55l-66 -35l-18.5 37t-24 49.5t-23.5 48.5q-11 -27 -23 -56t-21.5 -51.5t-13.5 -30.5l-66 28q4 10 15 33.5t24.5 51.5t25.5 54t18 42zM269 -237q-31 0 -51.5 21t-20.5 52t20.5 52t51.5 21t53 -21t22 -52t-22 -52t-53 -21zM91 -237q-31 0 -52 21t-21 52t21 52t52 21
q30 0 52 -21t22 -52t-22 -52t-52 -21z" />
    <glyph glyph-name="yehVinverted-farsi.fina" unicode="&#x63d;" horiz-adv-x="841" 
d="M24 35q0 27 4 58t16 72t36 100l155 -55q-14 -39 -21.5 -63.5t-10 -42.5t-2.5 -38q0 -33 18 -62t61.5 -47t122.5 -18q70 0 113 10.5t66 25.5t31.5 30t8.5 23q0 17 -29.5 34.5t-85.5 37.5l47 144q74 -33 151.5 -57t145.5 -24q48 0 69 -24t21 -58q0 -38 -25.5 -62t-74.5 -24
h-53q1 -5 1.5 -9.5t0.5 -9.5q0 -30 -23.5 -65.5t-72 -68t-124 -53t-179.5 -20.5q-109 0 -191.5 28.5t-129 87.5t-46.5 150zM200 520l80 6q11 -20 28.5 -54l35 -68t29.5 -55l-66 -35l-18.5 37t-24 49.5t-23.5 48.5q-11 -27 -23 -56t-21.5 -51.5t-13.5 -30.5l-66 28
q4 10 15 33.5t24.5 51.5t25.5 54t18 42z" />
    <glyph glyph-name="yehTwodotsabove-farsi.init" unicode="&#x63e;" horiz-adv-x="403" 
d="M0 -5l10 168q63 0 96.5 9t45.5 27.5t12 46.5q0 32 -8 72.5t-19 82t-22 76.5l161 43q12 -35 25 -80.5t22.5 -96.5t9.5 -103q0 -80 -27.5 -128.5t-74.5 -73.5t-107 -34t-124 -9zM292 614q-31 0 -51.5 21.5t-20.5 51.5q0 31 20.5 52t51.5 21t53 -21t22 -52q0 -30 -22 -51.5
t-53 -21.5zM114 614q-31 0 -52 21.5t-21 51.5q0 31 21 52t52 21q30 0 52 -21t22 -52q0 -30 -22 -51.5t-52 -21.5zM279 -237q-31 0 -51.5 21t-20.5 52t20.5 52t51.5 21t53 -21t22 -52t-22 -52t-53 -21zM101 -237q-31 0 -52 21t-21 52t21 52t52 21q30 0 52 -21t22 -52t-22 -52
t-52 -21z" />
    <glyph glyph-name="yehTwodotsabove-farsi.medi" unicode="&#x63e;" horiz-adv-x="445" 
d="M0 -5l10 168q42 0 68 6.5t42.5 28t26 64t18.5 114.5l165 -26q-2 -21 -6 -50.5t-4 -58.5q0 -27 11 -44t40 -25.5t84 -8.5q48 0 69 -24t21 -58q0 -38 -25 -62t-75 -24q-89 0 -139.5 20.5t-72.5 63.5q-29 -38 -66.5 -56t-80 -23t-86.5 -5zM398 505q-31 0 -51.5 21.5
t-20.5 51.5q0 31 20.5 52t51.5 21t53 -21t22 -52q0 -30 -22 -51.5t-53 -21.5zM220 505q-31 0 -52 21.5t-21 51.5q0 31 21 52t52 21q30 0 52 -21t22 -52q0 -30 -22 -51.5t-52 -21.5zM365 -237q-31 0 -51.5 21t-20.5 52t20.5 52t51.5 21t53 -21t22 -52t-22 -52t-53 -21z
M187 -237q-31 0 -52 21t-21 52t21 52t52 21q30 0 52 -21t22 -52t-22 -52t-52 -21z" />
    <glyph glyph-name="yehTwodotsabove-farsi.fina" unicode="&#x63e;" horiz-adv-x="841" 
d="M24 35q0 27 4 58t16 72t36 100l155 -55q-14 -39 -21.5 -63.5t-10 -42.5t-2.5 -38q0 -33 18 -62t61.5 -47t122.5 -18q70 0 113 10.5t66 25.5t31.5 30t8.5 23q0 17 -29.5 34.5t-85.5 37.5l47 144q74 -33 151.5 -57t145.5 -24q48 0 69 -24t21 -58q0 -38 -25.5 -62t-74.5 -24
h-53q1 -5 1.5 -9.5t0.5 -9.5q0 -30 -23.5 -65.5t-72 -68t-124 -53t-179.5 -20.5q-109 0 -191.5 28.5t-129 87.5t-46.5 150zM333.807 299.213q-27.9004 0 -46.3516 19.3506q-18.4502 19.3506 -18.4502 46.3516q0 27.9004 18.4502 46.8008q18.4512 18.9014 46.3516 18.9014
t47.7012 -18.9014q19.8008 -18.9004 19.8008 -46.8008q0 -27.001 -19.8008 -46.3516t-47.7012 -19.3506zM173.603 299.213q-27.9014 0 -46.8018 19.3506t-18.9004 46.3516q0 27.9004 18.9004 46.8008q18.9004 18.9014 46.8018 18.9014q27.001 0 46.8008 -18.9014
q19.8008 -18.9004 19.8008 -46.8008q0 -27.001 -19.8008 -46.3516q-19.7998 -19.3506 -46.8008 -19.3506z" />
    <glyph glyph-name="yehThreedotsabove-farsi.init" unicode="&#x63f;" horiz-adv-x="403" 
d="M0 -5l10 168q63 0 96.5 9t45.5 27.5t12 46.5q0 32 -8 72.5t-19 82t-22 76.5l161 43q12 -35 25 -80.5t22.5 -96.5t9.5 -103q0 -80 -27.5 -128.5t-74.5 -73.5t-107 -34t-124 -9zM200 767q-32 0 -53 21.5t-21 50.5q0 31 21 53t53 22q31 0 52.5 -22t21.5 -53
q0 -29 -21.5 -50.5t-52.5 -21.5zM115 610q-32 0 -54 23t-22 53q0 28 22 51.5t54 23.5q28 0 50 -23.5t22 -51.5q0 -30 -22 -53t-50 -23zM288 610q-30 0 -50 23t-20 53q0 28 20 51.5t50 23.5q31 0 53 -23.5t22 -51.5q0 -30 -22 -53t-53 -23zM279 -237q-31 0 -51.5 21t-20.5 52
t20.5 52t51.5 21t53 -21t22 -52t-22 -52t-53 -21zM101 -237q-31 0 -52 21t-21 52t21 52t52 21q30 0 52 -21t22 -52t-22 -52t-52 -21z" />
    <glyph glyph-name="yehThreedotsabove-farsi.medi" unicode="&#x63f;" horiz-adv-x="445" 
d="M0 -5l10 168q42 0 68 6.5t42.5 28t26 64t18.5 114.5l165 -26q-2 -21 -6 -50.5t-4 -58.5q0 -27 11 -44t40 -25.5t84 -8.5q48 0 69 -24t21 -58q0 -38 -25 -62t-75 -24q-89 0 -139.5 20.5t-72.5 63.5q-29 -38 -66.5 -56t-80 -23t-86.5 -5zM239 639q-32 0 -53 21.5t-21 50.5
q0 31 21 53t53 22q31 0 52.5 -22t21.5 -53q0 -29 -21.5 -50.5t-52.5 -21.5zM154 482q-32 0 -54 23t-22 53q0 28 22 51.5t54 23.5q28 0 50 -23.5t22 -51.5q0 -30 -22 -53t-50 -23zM327 482q-30 0 -50 23t-20 53q0 28 20 51.5t50 23.5q31 0 53 -23.5t22 -51.5q0 -30 -22 -53
t-53 -23zM301 -237q-31 0 -51.5 21t-20.5 52t20.5 52t51.5 21t53 -21t22 -52t-22 -52t-53 -21zM123 -237q-31 0 -52 21t-21 52t21 52t52 21q30 0 52 -21t22 -52t-22 -52t-52 -21z" />
    <glyph glyph-name="yehThreedotsabove-farsi.fina" unicode="&#x63f;" horiz-adv-x="841" 
d="M24 35q0 27 4 58t16 72t36 100l155 -55q-14 -39 -21.5 -63.5t-10 -42.5t-2.5 -38q0 -33 18 -62t61.5 -47t122.5 -18q70 0 113 10.5t66 25.5t31.5 30t8.5 23q0 17 -29.5 34.5t-85.5 37.5l47 144q74 -33 151.5 -57t145.5 -24q48 0 69 -24t21 -58q0 -38 -25.5 -62t-74.5 -24
h-53q1 -5 1.5 -9.5t0.5 -9.5q0 -30 -23.5 -65.5t-72 -68t-124 -53t-179.5 -20.5q-109 0 -191.5 28.5t-129 87.5t-46.5 150zM250.904 437.517q-28.8008 0 -47.7012 19.3506t-18.9004 45.4512q0 27.9014 18.9004 47.7012q18.9004 19.8008 47.7012 19.8008
q27.9014 0 47.252 -19.8008q19.3506 -19.7998 19.3506 -47.7012q0 -26.1006 -19.3506 -45.4512t-47.252 -19.3506zM174.402 296.213q-28.8008 0 -48.6016 20.7012q-19.7998 20.7002 -19.7998 47.7012q0 25.2002 19.7998 46.3506q19.8008 21.1514 48.6016 21.1514
q25.2012 0 45.002 -21.1514q19.7998 -21.1504 19.7998 -46.3506q0 -27.001 -19.7998 -47.7012q-19.8008 -20.7012 -45.002 -20.7012zM330.106 296.213q-27 0 -45.001 20.7012q-18 20.7002 -18 47.7012q0 25.2002 18 46.3506q18.001 21.1514 45.001 21.1514
q27.9014 0 47.7021 -21.1514q19.7998 -21.1504 19.7998 -46.3506q0 -27.001 -19.7998 -47.7012q-19.8008 -20.7012 -47.7021 -20.7012z" />
    <glyph glyph-name="uniFE71" unicode="&#x64b;" horiz-adv-x="330" 
d="M0 -5l10 168h330q48 0 69 -24t21 -58q0 -38 -25 -62t-75 -24h-330zM30 699v76l244 72v-77zM30 582v76l244 72v-77z" />
    <glyph glyph-name="uniFE77" unicode="&#x64e;" horiz-adv-x="330" 
d="M0 -5l10 168h330q48 0 69 -24t21 -58q0 -38 -25 -62t-75 -24h-330zM43 582v76l244 72v-77z" />
    <glyph glyph-name="uniFE79" unicode="&#x64f;" horiz-adv-x="330" 
d="M0 -5l10 168h330q48 0 69 -24t21 -58q0 -38 -25 -62t-75 -24h-330zM14 582l-13 69q33 1 62 6t52 13q-20 15 -33.5 37t-13.5 51q0 45 30.5 72.5t76.5 27.5q52 0 77.5 -32t25.5 -73q0 -69 -69 -116t-195 -55zM142 753q0 -16 10 -27.5t26 -20.5q27 23 27 47q0 13 -8 24
t-23 11q-14 0 -23 -9.5t-9 -24.5z" />
    <glyph glyph-name="uniFE7B" unicode="&#x650;" horiz-adv-x="330" 
d="M0 -5l10 168h330q48 0 69 -24t21 -58q0 -38 -25 -62t-75 -24h-330zM99 -181v76l244 72v-77z" />
    <glyph glyph-name="uniFE7D" unicode="&#x651;" horiz-adv-x="330" 
d="M0 -5l10 168h330q48 0 69 -24t21 -58q0 -38 -25 -62t-75 -24h-330zM112 591q-47 0 -61 30t-14 73q0 11 1.5 23.5t4.5 28.5l72 14q-2 -17 -3.5 -31.5t-1.5 -25.5q0 -19 4 -26t12 -7q12 0 17.5 15t6.5 59v30l60 18v-61q0 -17 4 -24t14 -7q12 0 16 9.5t4 25.5q0 17 -4 34.5
t-10 34.5l67 14q10 -20 16.5 -44t6.5 -44q0 -46 -20 -76t-68 -30q-13 0 -26.5 6t-23.5 19q-10 -29 -30.5 -43.5t-43.5 -14.5z" />
    <glyph glyph-name="uniFE7F" unicode="&#x652;" horiz-adv-x="330" 
d="M0 -5l10 168h330q48 0 69 -24t21 -58q0 -38 -25 -62t-75 -24h-330zM165 618q-52 0 -79 32t-27 75q0 33 14 61.5t39.5 46t57.5 17.5q30 0 53.5 -17t37 -44.5t13.5 -58.5q0 -46 -30.5 -79t-78.5 -33zM164 690q17 0 29.5 11t12.5 29q0 19 -13 31.5t-28 12.5q-19 0 -29.5 -13
t-10.5 -30q0 -18 11 -29.5t28 -11.5z" />
    <glyph glyph-name="dotlessbeh-ar.init" unicode="&#x66e;" horiz-adv-x="345" 
d="M0 -5l10 168q61 0 86 18.5t25 60.5q0 32 -8.5 73.5t-20.5 84t-22 77.5l161 43q12 -35 25.5 -81.5t23.5 -98.5t10 -104q0 -80 -27 -127.5t-70.5 -72.5t-94 -33t-98.5 -8z" />
    <glyph glyph-name="dotlessbeh-ar.medi" unicode="&#x66e;" horiz-adv-x="410" 
d="M0 -5l10 168q34 0 56.5 6.5t36.5 28t23.5 64t18.5 114.5l165 -26q-2 -21 -6 -50.5t-4 -58.5q0 -40 26 -59t94 -19q48 0 69 -24t21 -58q0 -38 -25 -62t-75 -24q-79 0 -127 20.5t-70 63.5q-28 -38 -64 -56t-74.5 -23t-74.5 -5z" />
    <glyph glyph-name="dotlessbeh-ar.fina" unicode="&#x66e;" horiz-adv-x="1192" 
d="M478 -21q-126 0 -208 20t-128 54t-65 77t-19 89q0 59 14 113.5t26 92.5l147 -35q-7 -31 -13.5 -62.5t-6.5 -59.5q0 -36 25.5 -63t86.5 -42.5t167 -15.5q117 0 194.5 15t127 43t80.5 66t55 84l138 -59q-8 -20 -12.5 -36t-4.5 -31q0 -30 31 -48t89 -18q48 0 69 -24t21 -58
q0 -38 -25 -62t-75 -24q-95 0 -150.5 28.5t-73.5 81.5q-67 -66 -190.5 -96t-299.5 -30z" />
    <glyph glyph-name="dotlessqaf-ar.init" unicode="&#x66f;" horiz-adv-x="550" 
d="M0 -5l10 168q94 0 163 0.5t97 11.5q29 11 42 37q-40 -16 -85 -16q-71 0 -119 41t-48 116q0 61 27 116t76 90t115 35t114.5 -36.5t75.5 -104t27 -160.5q0 -90 -27 -152t-84 -95q-61 -35 -157.5 -43t-226.5 -8zM221 384q0 -22 14.5 -35t39.5 -13q11 0 24 2t28 7
q-5 59 -21 85t-38 26q-20 0 -33.5 -19.5t-13.5 -52.5z" />
    <glyph glyph-name="dotlessqaf-ar.medi" unicode="&#x66f;" horiz-adv-x="549" 
d="M0 -5l10 168q15 0 40.5 1.5t54.5 4.5q-21 28 -32.5 58.5t-11.5 67.5q0 44 19.5 81.5t51.5 65.5t71 43.5t79 15.5q59 0 106.5 -28.5t75.5 -73.5t28 -96q0 -42 -12.5 -76.5t-33.5 -61.5q27 -2 55.5 -2h57.5q48 0 69 -24t21 -58q0 -38 -25.5 -62t-74.5 -24q-80 0 -154.5 11
t-124.5 31q-30 -12 -68.5 -20t-78 -13t-72.5 -7t-51 -2zM227 281q0 -17 9.5 -35.5t34.5 -39.5q29 16 42 37.5t13 44.5q0 24 -14.5 42.5t-32.5 18.5t-35 -18.5t-17 -49.5z" />
    <glyph glyph-name="dotlessqaf-ar.fina" unicode="&#x66f;" horiz-adv-x="865" 
d="M364 -271q-95 0 -172 27t-122.5 85.5t-45.5 152.5q0 28 4 58.5t16 71.5t36 100l155 -55q-14 -39 -21.5 -63.5t-10 -42.5t-2.5 -38q0 -56 46 -92t143 -36q96 0 157 29t84 71q-65 4 -120 22t-88.5 55.5t-33.5 101.5q0 63 30 116.5t82.5 86.5t119.5 33q63 0 106.5 -32
t67 -88t28.5 -129h52q48 0 69 -24t21 -58q0 -38 -25.5 -62t-74.5 -24h-63q-6 -20 -14 -38t-17 -34q-50 -92 -153 -143t-254 -51zM557 213q0 -18 7 -31t28 -20t63 -7q-1 65 -11.5 92t-35.5 27t-38 -21t-13 -40z" />
    <glyph glyph-name="alefWavyhamzaabove-ar.fina" unicode="&#x672;" horiz-adv-x="341" 
d="M341 -5q-102 0 -157.5 20t-78.5 61t-25 105l-20 509h172l20 -419q2 -49 12 -72t31 -29.5t56 -6.5q48 0 69 -24t21 -58q0 -38 -25 -62t-75 -24zM14 769l-63 44q12 28 34.5 40.5t40.5 12.5q20 0 38.5 -11t29.5 -11h2q-16 15 -26 35.5t-10 43.5q0 46 31.5 74t81.5 28
q33 0 57 -8l-8 -70q-10 2 -19.5 4t-19.5 2q-45 0 -45 -32q0 -23 19 -39t37 -21q18 6 32.5 12.5t29.5 12.5l23 -68q-8 -4 -28 -12t-45 -16t-47.5 -14t-35.5 -6q-31 0 -48.5 11t-27.5 11q-16 0 -33 -23z" />
    <glyph glyph-name="alefWavyhamzabelow-ar.fina" unicode="&#x673;" horiz-adv-x="344" 
d="M344 -5q-102 0 -157.5 20t-78 61t-25.5 105l-23 579h172l23 -489q3 -49 12.5 -72t30 -29.5t56.5 -6.5q48 0 69 -24t21 -58q0 -38 -25 -62t-75 -24zM52 -268l-57 40q11 25 31 36.5t37 11.5q19 0 35 -10t27 -10h2q-15 13 -24 32t-9 40q0 42 29 67.5t74 25.5q15 0 28 -2
t24 -5l-8 -64q-9 2 -17 4t-18 2q-41 0 -41 -30q0 -21 17 -35t34 -19q16 6 29.5 12t26.5 11l21 -62q-7 -4 -25.5 -11t-41 -14.5t-43 -13t-32.5 -5.5q-28 0 -44 10t-25 10q-15 0 -30 -21z" />
    <glyph glyph-name="highhamzaAlef-ar.fina" unicode="&#x675;" horiz-adv-x="494" 
d="M494 -5h-138q-99 0 -158 20.5t-85.5 62t-29.5 103.5l-23 579h172l23 -489q2 -43 11 -66.5t31.5 -32.5t63.5 -9h143q48 0 69 -24t21 -58q0 -38 -25 -62t-75 -24zM293 578l-18 74q28 4 46 7q-17 14 -28.5 34.5t-11.5 44.5q0 38 17 61.5t43 34t54 10.5q17 0 31 -2t25 -6
l-8 -70q-10 2 -20.5 4t-22.5 2q-19 0 -30 -9t-11 -23q0 -23 17 -37.5t34 -20.5q36 10 68 22l22 -71q-40 -14 -95.5 -29.5t-111.5 -25.5z" />
    <glyph glyph-name="highhamzaWaw-ar.fina" unicode="&#x676;" horiz-adv-x="530" 
d="M49 -231l-26 153q87 6 149.5 24t100.5 50q-104 8 -161.5 55t-57.5 124q0 45 15.5 90t44 83t67.5 61t86 23q67 0 115 -36.5t75 -97.5t31 -135h52q48 0 69 -24t21 -58q0 -38 -25 -62t-75 -24h-67q-41 -96 -143.5 -155.5t-270.5 -70.5zM215 205q0 -17 7.5 -30t31.5 -20
t74 -4q-3 63 -21 97.5t-44 34.5q-16 0 -26.5 -13.5t-16 -31.5t-5.5 -33zM349 437l-18 74q28 4 46 7q-17 14 -28.5 34.5t-11.5 44.5q0 38 17 61.5t43 34t54 10.5q17 0 31 -2t25 -6l-8 -70q-10 2 -20.5 4t-22.5 2q-20 0 -30.5 -9t-10.5 -23q0 -23 17 -37.5t34 -20.5
q36 10 68 22l22 -71q-40 -14 -95.5 -29.5t-111.5 -25.5z" />
    <glyph glyph-name="uHamzaabove-ar.fina" unicode="&#x677;" horiz-adv-x="530" 
d="M49 -231l-26 153q87 6 149.5 24t100.5 50q-104 8 -161.5 55t-57.5 124q0 45 15.5 90t44 83t67.5 61t86 23q67 0 115 -36.5t75 -97.5t31 -135h52q48 0 69 -24t21 -58q0 -38 -25 -62t-75 -24h-67q-41 -96 -143.5 -155.5t-270.5 -70.5zM215 205q0 -17 7.5 -30t31.5 -20
t74 -4q-3 63 -21 97.5t-44 34.5q-16 0 -26.5 -13.5t-16 -31.5t-5.5 -33zM361 437l-18 74q28 4 46 7q-17 14 -28.5 34.5t-11.5 44.5q0 38 17 61.5t43 34t54 10.5q17 0 31 -2t25 -6l-8 -70q-10 2 -20.5 4t-22.5 2q-20 0 -30.5 -9t-10.5 -23q0 -23 17 -37.5t34 -20.5
q36 10 68 22l22 -71q-40 -14 -95.5 -29.5t-111.5 -25.5zM47 428l-13 69q33 1 62 6t52 13q-20 15 -33.5 37t-13.5 51q0 45 30.5 72.5t76.5 27.5q52 0 77.5 -32t25.5 -73q0 -69 -69 -116t-195 -55zM175 599q0 -16 10 -27.5t26 -20.5q27 23 27 47q0 13 -8 24t-23 11
q-14 0 -23 -9.5t-9 -24.5z" />
    <glyph glyph-name="highhamzaYeh-ar.init" unicode="&#x678;" horiz-adv-x="390" 
d="M0 -5l10 168q61 0 86 18.5t25 60.5q0 32 -8.5 73.5t-20.5 84t-22 77.5l161 43q12 -35 25.5 -81.5t23.5 -98.5t10 -104q0 -80 -27 -127.5t-70.5 -72.5t-94 -33t-98.5 -8zM183 578l-18 74q28 4 46 7q-17 14 -28.5 34.5t-11.5 44.5q0 38 17 61.5t43 34t54 10.5q17 0 31 -2
t25 -6l-8 -70q-10 2 -20.5 4t-22.5 2q-19 0 -30 -9t-11 -23q0 -23 17 -37.5t34 -20.5q36 10 68 22l22 -71q-40 -14 -95.5 -29.5t-111.5 -25.5z" />
    <glyph glyph-name="highhamzaYeh-ar.medi" unicode="&#x678;" horiz-adv-x="409" 
d="M0 -5l10 168q34 0 56.5 6.5t36.5 28t23.5 64t18.5 114.5l165 -26q-2 -21 -6 -50.5t-4 -58.5q0 -40 26 -59t94 -19q48 0 69 -24t21 -58q0 -38 -25 -62t-75 -24q-79 0 -127 20.5t-70 63.5q-28 -38 -64 -56t-74.5 -23t-74.5 -5zM212 409l-18 74q28 4 46 7q-17 14 -28.5 34.5
t-11.5 44.5q0 38 17 61.5t43 34t54 10.5q17 0 31 -2t25 -6l-8 -70q-10 2 -20.5 4t-22.5 2q-19 0 -30 -9t-11 -23q0 -23 17 -37.5t34 -20.5q36 10 68 22l22 -71q-40 -14 -95.5 -29.5t-111.5 -25.5z" />
    <glyph glyph-name="highhamzaYeh-ar.fina" unicode="&#x678;" horiz-adv-x="841" 
d="M24 35q0 27 4 58t16 72t36 100l155 -55q-14 -39 -21.5 -63.5t-10 -42.5t-2.5 -38q0 -33 18 -62t61.5 -47t122.5 -18q70 0 113 10.5t66 25.5t31.5 30t8.5 23q0 17 -29.5 34.5t-85.5 37.5l47 144q74 -33 151.5 -57t145.5 -24q48 0 69 -24t21 -58q0 -38 -25.5 -62t-74.5 -24
h-53q1 -5 1.5 -9.5t0.5 -9.5q0 -30 -23.5 -65.5t-72 -68t-124 -53t-179.5 -20.5q-109 0 -191.5 28.5t-129 87.5t-46.5 150zM621 255l-18 74q28 4 46 7q-17 14 -28.5 34.5t-11.5 44.5q0 38 17 61.5t43 34t54 10.5q17 0 31 -2t25 -6l-8 -70q-10 2 -20.5 4t-22.5 2
q-19 0 -30 -9t-11 -23q0 -23 17 -37.5t34 -20.5q36 10 68 22l22 -71q-40 -14 -95.5 -29.5t-111.5 -25.5z" />
    <glyph glyph-name="tehRing-ar.init" unicode="&#x67c;" horiz-adv-x="403" 
d="M0 -5l10 168q63 0 96.5 9t45.5 27.5t12 46.5q0 32 -8 72.5t-19 82t-22 76.5l161 43q12 -35 25 -80.5t22.5 -96.5t9.5 -103q0 -80 -27.5 -128.5t-74.5 -73.5t-107 -34t-124 -9zM292 614q-31 0 -51.5 21.5t-20.5 51.5q0 31 20.5 52t51.5 21t53 -21t22 -52q0 -30 -22 -51.5
t-53 -21.5zM114 614q-31 0 -52 21.5t-21 51.5q0 31 21 52t52 21q30 0 52 -21t22 -52q0 -30 -22 -51.5t-52 -21.5zM127 -137q-44 0 -75 31.5t-31 75.5t31 75.5t75 31.5q45 0 76 -31.5t31 -75.5t-31 -75.5t-76 -31.5zM127 -62q14 0 24 9t10 23q0 15 -10 24t-24 9t-24 -9.5
t-10 -23.5t10 -23t24 -9z" />
    <glyph glyph-name="tehRing-ar.medi" unicode="&#x67c;" horiz-adv-x="410" 
d="M0 -5l10 168q34 0 56.5 6.5t36.5 28t23.5 64t18.5 114.5l165 -26q-2 -21 -6 -50.5t-4 -58.5q0 -40 26 -59t94 -19q48 0 69 -24t21 -58q0 -38 -25 -62t-75 -24q-79 0 -127 20.5t-70 63.5q-28 -38 -64 -56t-74.5 -23t-74.5 -5zM119 -133q-44 0 -75 31.5t-31 75.5t31 75.5
t75 31.5q45 0 76 -31.5t31 -75.5t-31 -75.5t-76 -31.5zM119 -58q14 0 24 9t10 23q0 15 -10 24t-24 9t-24 -9.5t-10 -23.5t10 -23t24 -9zM301 486q-31 0 -51.5 21.5t-20.5 51.5q0 31 20.5 52t51.5 21t53 -21t22 -52q0 -30 -22 -51.5t-53 -21.5zM123 486q-31 0 -52 21.5
t-21 51.5q0 31 21 52t52 21q30 0 52 -21t22 -52q0 -30 -22 -51.5t-52 -21.5z" />
    <glyph glyph-name="tehRing-ar.fina" unicode="&#x67c;" horiz-adv-x="1192" 
d="M478 -21q-126 0 -208 20t-128 54t-65 77t-19 89q0 59 14 113.5t26 92.5l147 -35q-7 -31 -13.5 -62.5t-6.5 -59.5q0 -36 25.5 -63t86.5 -42.5t167 -15.5q117 0 194.5 15t127 43t80.5 66t55 84l138 -59q-8 -20 -12.5 -36t-4.5 -31q0 -30 31 -48t89 -18q48 0 69 -24t21 -58
q0 -38 -25 -62t-75 -24q-95 0 -150.5 28.5t-73.5 81.5q-67 -66 -190.5 -96t-299.5 -30zM654 461q-31 0 -51.5 21.5t-20.5 51.5q0 31 20.5 52t51.5 21t53 -21t22 -52q0 -30 -22 -51.5t-53 -21.5zM476 461q-31 0 -52 21.5t-21 51.5q0 31 21 52t52 21q30 0 52 -21t22 -52
q0 -30 -22 -51.5t-52 -21.5zM544 -161q-44 0 -75 31.5t-31 75.5t31 75.5t75 31.5q45 0 76 -31.5t31 -75.5t-31 -75.5t-76 -31.5zM544 -86q14 0 24 9t10 23q0 15 -10 24t-24 9t-24 -9.5t-10 -23.5t10 -23t24 -9z" />
    <glyph glyph-name="tehThreedotsdown-ar.init" unicode="&#x67d;" horiz-adv-x="403" 
d="M0 -5l10 168q63 0 96.5 9t45.5 27.5t12 46.5q0 32 -8 72.5t-19 82t-22 76.5l161 43q12 -35 25 -80.5t22.5 -96.5t9.5 -103q0 -80 -27.5 -128.5t-74.5 -73.5t-107 -34t-124 -9zM106 765q-31 0 -52 21t-21 52t21 53t52 22q30 0 51 -22t21 -53t-21 -52t-51 -21zM283 765
q-30 0 -51 21t-21 52t21 53t51 22q32 0 52.5 -22t20.5 -53t-20.5 -52t-52.5 -21zM192 609q-31 0 -52 21.5t-21 51.5q0 31 21 53t52 22q30 0 51.5 -22t21.5 -53q0 -30 -21.5 -51.5t-51.5 -21.5z" />
    <glyph glyph-name="tehThreedotsdown-ar.medi" unicode="&#x67d;" horiz-adv-x="445" 
d="M0 -5l10 168q42 0 68 6.5t42.5 28t26 64t18.5 114.5l165 -26q-2 -21 -6 -50.5t-4 -58.5q0 -27 11 -44t40 -25.5t84 -8.5q48 0 69 -24t21 -58q0 -38 -25 -62t-75 -24q-89 0 -139.5 20.5t-72.5 63.5q-29 -38 -66.5 -56t-80 -23t-86.5 -5zM145 637q-31 0 -52 21t-21 52
t21 53t52 22q30 0 51 -22t21 -53t-21 -52t-51 -21zM322 637q-30 0 -51 21t-21 52t21 53t51 22q32 0 52.5 -22t20.5 -53t-20.5 -52t-52.5 -21zM231 481q-31 0 -52 21.5t-21 51.5q0 31 21 53t52 22q30 0 51.5 -22t21.5 -53q0 -30 -21.5 -51.5t-51.5 -21.5z" />
    <glyph glyph-name="tehThreedotsdown-ar.fina" unicode="&#x67d;" horiz-adv-x="1192" 
d="M478 -21q-126 0 -208 20t-128 54t-65 77t-19 89q0 59 14 113.5t26 92.5l147 -35q-7 -31 -13.5 -62.5t-6.5 -59.5q0 -36 25.5 -63t86.5 -42.5t167 -15.5q117 0 194.5 15t127 43t80.5 66t55 84l138 -59q-8 -20 -12.5 -36t-4.5 -31q0 -30 31 -48t89 -18q48 0 69 -24t21 -58
q0 -38 -25 -62t-75 -24q-95 0 -150.5 28.5t-73.5 81.5q-67 -66 -190.5 -96t-299.5 -30zM468 612q-31 0 -52 21t-21 52t21 53t52 22q30 0 51 -22t21 -53t-21 -52t-51 -21zM645 612q-30 0 -51 21t-21 52t21 53t51 22q32 0 52.5 -22t20.5 -53t-20.5 -52t-52.5 -21zM554 456
q-31 0 -52 21.5t-21 51.5q0 31 21 53t52 22q30 0 51.5 -22t21.5 -53q0 -30 -21.5 -51.5t-51.5 -21.5z" />
    <glyph glyph-name="hahHamzaabove-ar.init" unicode="&#x681;" horiz-adv-x="684" 
d="M0 -5l10 168q127 0 237.5 25.5t189.5 80.5q-50 16 -105.5 25t-119.5 9q-16 0 -41 -1t-50.5 -3.5t-43.5 -6.5l-22 176q30 8 72 11.5t75 3.5q69 0 126.5 -17t105 -40t88 -40t75.5 -17h41l21 -152q-39 -4 -74 -21.5t-71.5 -43t-81.5 -52.5t-104.5 -51t-139.5 -39t-188 -15z
M80 602l-18 74q28 4 46 7q-17 14 -28.5 34.5t-11.5 44.5q0 38 17 61.5t43 34t54 10.5q17 0 31 -2t25 -6l-8 -70q-10 2 -20.5 4t-22.5 2q-20 0 -30.5 -9t-10.5 -23q0 -23 17 -37.5t34 -20.5q36 10 68 22l22 -71q-40 -14 -95.5 -29.5t-111.5 -25.5z" />
    <glyph glyph-name="hahHamzaabove-ar.medi" unicode="&#x681;" horiz-adv-x="728" 
d="M0 -5l10 168q127 0 237.5 25.5t189.5 80.5q-50 16 -105.5 25t-119.5 9q-16 0 -41 -1t-50.5 -3.5t-43.5 -6.5l-22 176q30 8 72 11.5t75 3.5q69 0 126.5 -17t105 -40t88 -40t75.5 -17h41l21 -152q-21 -2 -40 -8t-37 -16q23 -17 61 -23.5t95 -6.5q48 0 69 -24t21 -58
q0 -38 -25 -62t-75 -24q-98 0 -160.5 28.5t-95.5 101.5q-47 -31 -109.5 -61t-150.5 -49.5t-212 -19.5zM69 623l-18 74q28 4 46 7q-17 14 -28.5 34.5t-11.5 44.5q0 38 17 61.5t43 34t54 10.5q17 0 31 -2t25 -6l-8 -70q-10 2 -20.5 4t-22.5 2q-20 0 -30.5 -9t-10.5 -23
q0 -23 17 -37.5t34 -20.5q36 10 68 22l22 -71q-40 -14 -95.5 -29.5t-111.5 -25.5z" />
    <glyph glyph-name="hahHamzaabove-ar.fina" unicode="&#x681;" horiz-adv-x="771" 
d="M398 -271q-75 0 -142 18t-117.5 54.5t-79.5 92.5t-29 132q0 88 32.5 154t89.5 111.5t130 74t154 42.5q-46 11 -105.5 21.5t-121.5 10.5q-40 0 -77.5 -4t-64.5 -11l-25 175q30 8 65 14t72 6q77 0 138.5 -15t112 -34.5t93 -34.5t81.5 -15h52l20 -182q-16 -1 -36.5 -3.5
t-44.5 -6.5q9 -58 24 -91.5t37.5 -49.5t53 -20.5t71.5 -4.5q48 0 69 -24t21 -58q0 -38 -25 -62t-75 -24q-65 0 -116.5 10.5t-89.5 41.5t-62 92t-36 161q-48 -15 -94.5 -36.5t-83.5 -51.5t-59 -70t-22 -90q0 -46 20 -74.5t52 -44t67.5 -21.5t65.5 -6q118 0 240 49l50 -157
q-82 -37 -161.5 -53t-143.5 -16zM239 740l-18 74q28 4 46 7q-17 14 -28.5 34.5t-11.5 44.5q0 38 17 61.5t43 34t54 10.5q17 0 31 -2t25 -6l-8 -70q-10 2 -20.5 4t-22.5 2q-20 0 -30.5 -9t-10.5 -23q0 -23 17 -37.5t34 -20.5q36 10 68 22l22 -71q-40 -14 -95.5 -29.5
t-111.5 -25.5z" />
    <glyph glyph-name="hahTwodotsverticalabove-ar.init" unicode="&#x682;" horiz-adv-x="684" 
d="M0 -5l10 168q127 0 237.5 25.5t189.5 80.5q-50 16 -105.5 25t-119.5 9q-16 0 -41 -1t-50.5 -3.5t-43.5 -6.5l-22 176q30 8 72 11.5t75 3.5q69 0 126.5 -17t105 -40t88 -40t75.5 -17h41l21 -152q-39 -4 -74 -21.5t-71.5 -43t-81.5 -52.5t-104.5 -51t-139.5 -39t-188 -15z
M192 756q-32 0 -52.5 20.5t-20.5 52.5q0 31 20.5 53t52.5 22q30 0 51.5 -22t21.5 -53q0 -32 -21.5 -52.5t-51.5 -20.5zM192 577q-32 0 -52.5 21.5t-20.5 51.5q0 31 20.5 53t52.5 22q30 0 51.5 -22t21.5 -53q0 -30 -21.5 -51.5t-51.5 -21.5z" />
    <glyph glyph-name="hahTwodotsverticalabove-ar.medi" unicode="&#x682;" horiz-adv-x="728" 
d="M0 -5l10 168q127 0 237.5 25.5t189.5 80.5q-50 16 -105.5 25t-119.5 9q-16 0 -41 -1t-50.5 -3.5t-43.5 -6.5l-22 176q30 8 72 11.5t75 3.5q69 0 126.5 -17t105 -40t88 -40t75.5 -17h41l21 -152q-21 -2 -40 -8t-37 -16q23 -17 61 -23.5t95 -6.5q48 0 69 -24t21 -58
q0 -38 -25 -62t-75 -24q-98 0 -160.5 28.5t-95.5 101.5q-47 -31 -109.5 -61t-150.5 -49.5t-212 -19.5zM181 777q-32 0 -52.5 20.5t-20.5 52.5q0 31 20.5 53t52.5 22q30 0 51.5 -22t21.5 -53q0 -32 -21.5 -52.5t-51.5 -20.5zM181 598q-32 0 -52.5 21.5t-20.5 51.5
q0 31 20.5 53t52.5 22q30 0 51.5 -22t21.5 -53q0 -30 -21.5 -51.5t-51.5 -21.5z" />
    <glyph glyph-name="hahTwodotsverticalabove-ar.fina" unicode="&#x682;" horiz-adv-x="771" 
d="M398 -271q-75 0 -142 18t-117.5 54.5t-79.5 92.5t-29 132q0 88 32.5 154t89.5 111.5t130 74t154 42.5q-46 11 -105.5 21.5t-121.5 10.5q-40 0 -77.5 -4t-64.5 -11l-25 175q30 8 65 14t72 6q77 0 138.5 -15t112 -34.5t93 -34.5t81.5 -15h52l20 -182q-16 -1 -36.5 -3.5
t-44.5 -6.5q9 -58 24 -91.5t37.5 -49.5t53 -20.5t71.5 -4.5q48 0 69 -24t21 -58q0 -38 -25 -62t-75 -24q-65 0 -116.5 10.5t-89.5 41.5t-62 92t-36 161q-48 -15 -94.5 -36.5t-83.5 -51.5t-59 -70t-22 -90q0 -46 20 -74.5t52 -44t67.5 -21.5t65.5 -6q118 0 240 49l50 -157
q-82 -37 -161.5 -53t-143.5 -16zM351 894q-32 0 -52.5 20.5t-20.5 52.5q0 31 20.5 53t52.5 22q30 0 51.5 -22t21.5 -53q0 -32 -21.5 -52.5t-51.5 -20.5zM351 715q-32 0 -52.5 21.5t-20.5 51.5q0 31 20.5 53t52.5 22q30 0 51.5 -22t21.5 -53q0 -30 -21.5 -51.5t-51.5 -21.5z
" />
    <glyph glyph-name="hahThreedotsabove-ar.init" unicode="&#x685;" horiz-adv-x="684" 
d="M0 -5l10 168q127 0 237.5 25.5t189.5 80.5q-50 16 -105.5 25t-119.5 9q-16 0 -41 -1t-50.5 -3.5t-43.5 -6.5l-22 176q30 8 72 11.5t75 3.5q69 0 126.5 -17t105 -40t88 -40t75.5 -17h41l21 -152q-39 -4 -74 -21.5t-71.5 -43t-81.5 -52.5t-104.5 -51t-139.5 -39t-188 -15z
M195 730q-32 0 -53 21.5t-21 50.5q0 31 21 53t53 22q31 0 52.5 -22t21.5 -53q0 -29 -21.5 -50.5t-52.5 -21.5zM110 573q-32 0 -54 23t-22 53q0 28 22 51.5t54 23.5q28 0 50 -23.5t22 -51.5q0 -30 -22 -53t-50 -23zM283 573q-30 0 -50 23t-20 53q0 28 20 51.5t50 23.5
q31 0 53 -23.5t22 -51.5q0 -30 -22 -53t-53 -23z" />
    <glyph glyph-name="hahThreedotsabove-ar.medi" unicode="&#x685;" horiz-adv-x="728" 
d="M0 -5l10 168q127 0 237.5 25.5t189.5 80.5q-50 16 -105.5 25t-119.5 9q-16 0 -41 -1t-50.5 -3.5t-43.5 -6.5l-22 176q30 8 72 11.5t75 3.5q69 0 126.5 -17t105 -40t88 -40t75.5 -17h41l21 -152q-21 -2 -40 -8t-37 -16q23 -17 61 -23.5t95 -6.5q48 0 69 -24t21 -58
q0 -38 -25 -62t-75 -24q-98 0 -160.5 28.5t-95.5 101.5q-47 -31 -109.5 -61t-150.5 -49.5t-212 -19.5zM184 751q-32 0 -53 21.5t-21 50.5q0 31 21 53t53 22q31 0 52.5 -22t21.5 -53q0 -29 -21.5 -50.5t-52.5 -21.5zM99 594q-32 0 -54 23t-22 53q0 28 22 51.5t54 23.5
q28 0 50 -23.5t22 -51.5q0 -30 -22 -53t-50 -23zM272 594q-30 0 -50 23t-20 53q0 28 20 51.5t50 23.5q31 0 53 -23.5t22 -51.5q0 -30 -22 -53t-53 -23z" />
    <glyph glyph-name="hahThreedotsabove-ar.fina" unicode="&#x685;" horiz-adv-x="771" 
d="M398 -271q-75 0 -142 18t-117.5 54.5t-79.5 92.5t-29 132q0 88 32.5 154t89.5 111.5t130 74t154 42.5q-46 11 -105.5 21.5t-121.5 10.5q-40 0 -77.5 -4t-64.5 -11l-25 175q30 8 65 14t72 6q77 0 138.5 -15t112 -34.5t93 -34.5t81.5 -15h52l20 -182q-16 -1 -36.5 -3.5
t-44.5 -6.5q9 -58 24 -91.5t37.5 -49.5t53 -20.5t71.5 -4.5q48 0 69 -24t21 -58q0 -38 -25 -62t-75 -24q-65 0 -116.5 10.5t-89.5 41.5t-62 92t-36 161q-48 -15 -94.5 -36.5t-83.5 -51.5t-59 -70t-22 -90q0 -46 20 -74.5t52 -44t67.5 -21.5t65.5 -6q118 0 240 49l50 -157
q-82 -37 -161.5 -53t-143.5 -16zM354 868q-32 0 -53 21.5t-21 50.5q0 31 21 53t53 22q31 0 52.5 -22t21.5 -53q0 -29 -21.5 -50.5t-52.5 -21.5zM269 711q-32 0 -54 23t-22 53q0 28 22 51.5t54 23.5q28 0 50 -23.5t22 -51.5q0 -30 -22 -53t-50 -23zM442 711q-30 0 -50 23
t-20 53q0 28 20 51.5t50 23.5q31 0 53 -23.5t22 -51.5q0 -30 -22 -53t-53 -23z" />
    <glyph glyph-name="dalRing-ar.fina" unicode="&#x689;" horiz-adv-x="599" 
d="M229 177q40 0 57 12.5t17 44.5q0 19 -8.5 46.5t-32.5 71.5t-70 113l160 99q68 -101 100 -175.5t45 -129.5t39.5 -75.5t72.5 -20.5q48 0 69 -24t21 -58q0 -38 -25 -62t-75 -24q-49 0 -90 16.5t-71 53.5q-29 -33 -78 -51.5t-114 -18.5q-57 0 -112.5 12.5t-103.5 42.5
l64 161q29 -14 63.5 -24t71.5 -10zM238 -145q-44 0 -75 31.5t-31 75.5t31 75.5t75 31.5q45 0 76 -31.5t31 -75.5t-31 -75.5t-76 -31.5zM238 -70q14 0 24 9t10 23q0 15 -10 24t-24 9t-24 -9.5t-10 -23.5t10 -23t24 -9z" />
    <glyph glyph-name="dalDotbelow-ar.fina" unicode="&#x68a;" horiz-adv-x="599" 
d="M229 177q40 0 57 12.5t17 44.5q0 19 -8.5 46.5t-32.5 71.5t-70 113l160 99q68 -101 100 -175.5t45 -129.5t39.5 -75.5t72.5 -20.5q48 0 69 -24t21 -58q0 -38 -25 -62t-75 -24q-49 0 -90 16.5t-71 53.5q-29 -33 -78 -51.5t-114 -18.5q-57 0 -112.5 12.5t-103.5 42.5
l64 161q29 -14 63.5 -24t71.5 -10zM240 -248q-34 0 -58 23.5t-24 57.5q0 35 24 59.5t58 24.5t57.5 -24.5t23.5 -59.5q0 -34 -23.5 -57.5t-57.5 -23.5z" />
    <glyph glyph-name="dalDotbelowTah-ar.fina" unicode="&#x68b;" horiz-adv-x="599" 
d="M229 177q40 0 57 12.5t17 44.5q0 19 -8.5 46.5t-32.5 71.5t-70 113l160 99q68 -101 100 -175.5t45 -129.5t39.5 -75.5t72.5 -20.5q48 0 69 -24t21 -58q0 -38 -25 -62t-75 -24q-49 0 -90 16.5t-71 53.5q-29 -33 -78 -51.5t-114 -18.5q-57 0 -112.5 12.5t-103.5 42.5
l64 161q29 -14 63.5 -24t71.5 -10zM231 679q-19 0 -44 1.5t-47 3t-33 2.5l4 73q11 -2 28 -3q6 14 14 27l-6 170h74l4 -90q42 30 84 30t67 -28.5t25 -69.5q0 -24 -12.5 -51t-49.5 -46t-108 -19zM298 818q-21 0 -44.5 -22t-37.5 -45h7q43 0 65 6.5t29.5 16t7.5 19.5t-7 17.5
t-20 7.5zM240 -248q-34 0 -58 23.5t-24 57.5q0 35 24 59.5t58 24.5t57.5 -24.5t23.5 -59.5q0 -34 -23.5 -57.5t-57.5 -23.5z" />
    <glyph glyph-name="dalThreedotsdown-ar.fina" unicode="&#x68f;" horiz-adv-x="599" 
d="M229 177q40 0 57 12.5t17 44.5q0 19 -8.5 46.5t-32.5 71.5t-70 113l160 99q68 -101 100 -175.5t45 -129.5t39.5 -75.5t72.5 -20.5q48 0 69 -24t21 -58q0 -38 -25 -62t-75 -24q-49 0 -90 16.5t-71 53.5q-29 -33 -78 -51.5t-114 -18.5q-57 0 -112.5 12.5t-103.5 42.5
l64 161q29 -14 63.5 -24t71.5 -10zM145 787q-31 0 -52 21t-21 52t21 53t52 22q30 0 51 -22t21 -53t-21 -52t-51 -21zM322 787q-30 0 -51 21t-21 52t21 53t51 22q32 0 52.5 -22t20.5 -53t-20.5 -52t-52.5 -21zM231 631q-31 0 -52 21.5t-21 51.5q0 31 21 53t52 22
q30 0 51.5 -22t21.5 -53q0 -30 -21.5 -51.5t-51.5 -21.5z" />
    <glyph glyph-name="dalFourdots-ar.fina" unicode="&#x690;" horiz-adv-x="599" 
d="M229 177q40 0 57 12.5t17 44.5q0 19 -8.5 46.5t-32.5 71.5t-70 113l160 99q68 -101 100 -175.5t45 -129.5t39.5 -75.5t72.5 -20.5q48 0 69 -24t21 -58q0 -38 -25 -62t-75 -24q-49 0 -90 16.5t-71 53.5q-29 -33 -78 -51.5t-114 -18.5q-57 0 -112.5 12.5t-103.5 42.5
l64 161q29 -14 63.5 -24t71.5 -10zM159 787q-27 0 -46 19t-19 46q0 28 19 48t46 20t46 -20t19 -48q0 -27 -19 -46t-46 -19zM323 787q-27 0 -46 19t-19 46q0 28 19 48t46 20t46 -20t19 -48q0 -27 -19 -46t-46 -19zM160 631q-27 0 -46 19t-19 46q0 28 19 48t46 20t46 -20
t19 -48q0 -27 -19 -46t-46 -19zM320 631q-27 0 -46 19t-19 46q0 28 19 48t46 20t46 -20t19 -48q0 -27 -19 -46t-46 -19z" />
    <glyph glyph-name="rehv-ar.fina" unicode="&#x692;" horiz-adv-x="460" 
d="M17 -231l-54 155q95 24 149 60t76.5 75t22.5 74q0 41 -22 94t-58 114l154 76q25 -43 45 -91t34 -92q13 -40 37 -55.5t69 -15.5q48 0 69 -24t21 -58q0 -38 -25 -62t-75 -24q-66 0 -102 36q-20 -55 -63 -106t-111.5 -91.5t-166.5 -64.5zM154 525q-11 20 -28.5 54l-35 68
t-29.5 55l66 35l18.5 -37t24 -49.5t23.5 -48.5q11 27 23 56t21.5 51.5t13.5 30.5l66 -28q-4 -10 -15 -33.5t-24.5 -51.5t-25.5 -54t-18 -42z" />
    <glyph glyph-name="rehRing-ar.fina" unicode="&#x693;" horiz-adv-x="460" 
d="M17 -231l-54 155q95 24 149 60t76.5 75t22.5 74q0 41 -22 94t-58 114l154 76q25 -43 45 -91t34 -92q13 -40 37 -55.5t69 -15.5q48 0 69 -24t21 -58q0 -38 -25 -62t-75 -24q-66 0 -102 36q-20 -55 -63 -106t-111.5 -91.5t-166.5 -64.5zM309 -219q-44 0 -75 31.5t-31 75.5
t31 75.5t75 31.5q45 0 76 -31.5t31 -75.5t-31 -75.5t-76 -31.5zM309 -144q14 0 24 9t10 23q0 15 -10 24t-24 9t-24 -9.5t-10 -23.5t10 -23t24 -9z" />
    <glyph glyph-name="rehDotbelow-ar.fina" unicode="&#x694;" horiz-adv-x="460" 
d="M17 -231l-54 155q95 24 149 60t76.5 75t22.5 74q0 41 -22 94t-58 114l154 76q25 -43 45 -91t34 -92q13 -40 37 -55.5t69 -15.5q48 0 69 -24t21 -58q0 -38 -25 -62t-75 -24q-66 0 -102 36q-20 -55 -63 -106t-111.5 -91.5t-166.5 -64.5zM304.398 -257.997
q-26.3994 0 -44.3994 18q-17.999 17.999 -17.999 43.5986q0 26.4004 17.999 45.2002q18 18.7988 44.3994 18.7988t44 -18.7988q17.5996 -18.7998 17.5996 -45.2002q0 -25.5996 -17.5996 -43.5986q-17.6006 -18 -44 -18z" />
    <glyph glyph-name="rehVbelow-ar.fina" unicode="&#x695;" horiz-adv-x="460" 
d="M17 -231l-54 155q95 24 149 60t76.5 75t22.5 74q0 41 -22 94t-58 114l154 76q25 -43 45 -91t34 -92q13 -40 37 -55.5t69 -15.5q48 0 69 -24t21 -58q0 -38 -25 -62t-75 -24q-66 0 -102 36q-20 -55 -63 -106t-111.5 -91.5t-166.5 -64.5zM12.3984 25.6035
q-8.7998 15.999 -21.999 40.7988q-13.2002 24.7998 -27.2002 49.5996q-13.999 24.7998 -25.1992 41.5996l52.7988 27.999q5.60059 -8 14.7998 -24.3994q9.2002 -16.3994 19.5996 -35.999q10.4004 -19.6006 19.2002 -36.3994q8.7998 19.1992 17.5996 39.999t16.3994 36.7998
q7.60059 15.999 11.6006 22.3994l52.7988 -22.3994q-4.7998 -8 -13.5996 -25.2002q-8.7998 -17.1992 -19.2002 -37.999q-10.3994 -20.7998 -19.5996 -40q-9.19922 -19.1992 -14 -31.999z" />
    <glyph glyph-name="rehDotbelowdotabove-ar.fina" unicode="&#x696;" horiz-adv-x="460" 
d="M17 -231l-54 155q95 24 149 60t76.5 75t22.5 74q0 41 -22 94t-58 114l154 76q25 -43 45 -91t34 -92q13 -40 37 -55.5t69 -15.5q48 0 69 -24t21 -58q0 -38 -25 -62t-75 -24q-66 0 -102 36q-20 -55 -63 -106t-111.5 -91.5t-166.5 -64.5zM79 25q-34 0 -58 24t-24 58t24 59.5
t58 25.5t57.5 -25.5t23.5 -59.5t-23.5 -58t-57.5 -24zM304.398 -257.997q-26.3994 0 -44.3994 18q-17.999 17.999 -17.999 43.5986q0 26.4004 17.999 45.2002q18 18.7988 44.3994 18.7988t44 -18.7988q17.5996 -18.7998 17.5996 -45.2002q0 -25.5996 -17.5996 -43.5986
q-17.6006 -18 -44 -18z" />
    <glyph glyph-name="rehTwodots-ar.fina" unicode="&#x697;" horiz-adv-x="460" 
d="M17 -231l-54 155q95 24 149 60t76.5 75t22.5 74q0 41 -22 94t-58 114l154 76q25 -43 45 -91t34 -92q13 -40 37 -55.5t69 -15.5q48 0 69 -24t21 -58q0 -38 -25 -62t-75 -24q-66 0 -102 36q-20 -55 -63 -106t-111.5 -91.5t-166.5 -64.5zM287 514q-31 0 -51.5 21.5
t-20.5 51.5q0 31 20.5 52t51.5 21t53 -21t22 -52q0 -30 -22 -51.5t-53 -21.5zM109 514q-31 0 -52 21.5t-21 51.5q0 31 21 52t52 21q30 0 52 -21t22 -52q0 -30 -22 -51.5t-52 -21.5z" />
    <glyph glyph-name="rehFourdots-ar.fina" unicode="&#x699;" horiz-adv-x="460" 
d="M17 -231l-54 155q95 24 149 60t76.5 75t22.5 74q0 41 -22 94t-58 114l154 76q25 -43 45 -91t34 -92q13 -40 37 -55.5t69 -15.5q48 0 69 -24t21 -58q0 -38 -25 -62t-75 -24q-66 0 -102 36q-20 -55 -63 -106t-111.5 -91.5t-166.5 -64.5zM115 665q-27 0 -46 19t-19 46
q0 28 19 48t46 20t46 -20t19 -48q0 -27 -19 -46t-46 -19zM279 665q-27 0 -46 19t-19 46q0 28 19 48t46 20t46 -20t19 -48q0 -27 -19 -46t-46 -19zM116 509q-27 0 -46 19t-19 46q0 28 19 48t46 20t46 -20t19 -48q0 -27 -19 -46t-46 -19zM276 509q-27 0 -46 19t-19 46
q0 28 19 48t46 20t46 -20t19 -48q0 -27 -19 -46t-46 -19z" />
    <glyph glyph-name="seenDotbelowDotabove-ar.init" unicode="&#x69a;" horiz-adv-x="1050" 
d="M0 -5l10 168q34 0 55.5 6.5t34.5 27t23 61.5t21 110l165 -26q-3 -20 -8.5 -55t-5.5 -64q0 -25 16.5 -42t62.5 -17q32 0 51.5 6t31.5 27t21 63.5t20 115.5l168 -26q-6 -34 -12.5 -73.5t-6.5 -60.5q0 -22 19 -37.5t67 -15.5q53 0 72.5 15.5t19.5 52.5q0 40 -15 101.5
t-40 134.5l166 49q18 -50 31 -103.5t20.5 -102.5t7.5 -85q0 -73 -32 -124.5t-89.5 -78.5t-131.5 -27q-67 0 -108.5 20t-60.5 72q-22 -42 -50 -61.5t-63 -25t-77 -5.5q-46 0 -90.5 12.5t-75.5 61.5q-40 -46 -96 -60t-121 -14zM526 -248q-34 0 -58 23.5t-24 57.5q0 35 24 59.5
t58 24.5t57.5 -24.5t23.5 -59.5q0 -34 -23.5 -57.5t-57.5 -23.5zM571 517q-34 0 -58 24t-24 58t24 59.5t58 25.5t57.5 -25.5t23.5 -59.5t-23.5 -58t-57.5 -24z" />
    <glyph glyph-name="seenDotbelowDotabove-ar.medi" unicode="&#x69a;" horiz-adv-x="1116" 
d="M0 -5l10 168q34 0 55.5 6.5t34.5 27t23 61.5t21 110l165 -26q-3 -20 -8.5 -52t-5.5 -57q0 -33 17 -51t66 -18q29 0 48 6t32 27t22 63.5t18 115.5l168 -26q-8 -40 -13.5 -77t-5.5 -57q0 -22 20 -37.5t74 -15.5q50 0 67.5 20.5t17.5 64.5q0 32 -3 77.5t-11 112.5l165 13
q8 -93 17.5 -150t25 -87t41 -40.5t65.5 -10.5q48 0 69 -24t21 -58q0 -38 -25 -62t-75 -24q-18 0 -44 3t-54.5 14t-54.5 34t-44 62q-24 -57 -67 -85t-121 -28q-54 0 -99 19.5t-62 66.5q-20 -37 -45 -55.5t-59.5 -24.5t-83.5 -6q-46 0 -90.5 14.5t-75.5 62.5
q-40 -44 -95.5 -60.5t-120.5 -16.5zM498 -248q-34 0 -58 23.5t-24 57.5q0 35 24 59.5t58 24.5t57.5 -24.5t23.5 -59.5q0 -34 -23.5 -57.5t-57.5 -23.5zM555 517q-34 0 -58 24t-24 58t24 59.5t58 25.5t57.5 -25.5t23.5 -59.5t-23.5 -58t-57.5 -24z" />
    <glyph glyph-name="seenDotbelowDotabove-ar.fina" unicode="&#x69a;" horiz-adv-x="1546" 
d="M370 -232q-70 0 -132.5 15t-110.5 47t-75.5 82t-27.5 120q0 28 4 59t15.5 72t35.5 99l156 -53q-14 -39 -21.5 -63.5t-10 -43t-2.5 -39.5q0 -54 41.5 -90.5t124.5 -36.5q95 0 145.5 36t50.5 114q0 38 -17 105.5t-40 143.5l178 45q14 -59 23.5 -95t14.5 -51
q14 -44 31.5 -57.5t58.5 -12.5q27 0 45 6.5t30.5 27t22 63t18.5 115.5l168 -26q-8 -40 -13.5 -77t-5.5 -57q0 -22 20 -37.5t74 -15.5q50 0 67.5 20.5t17.5 64.5q0 32 -3 77.5t-11 112.5l165 13q9 -104 20.5 -162.5t28.5 -85.5t41.5 -33.5t58.5 -6.5q48 0 69 -24t21 -58
q0 -38 -25 -62t-75 -24q-33 0 -70.5 9t-71 33.5t-55.5 69.5q-17 -43 -45.5 -67.5t-63 -34.5t-70.5 -10q-71 0 -112.5 21.5t-56.5 63.5q-29 -54 -70 -69.5t-94 -15.5q-18 0 -45 4t-52 18q-9 -61 -43 -107.5t-86 -78t-114 -47.5t-127 -16zM1002 -243q-34 0 -58 23.5t-24 57.5
q0 35 24 59.5t58 24.5t57.5 -24.5t23.5 -59.5q0 -34 -23.5 -57.5t-57.5 -23.5zM929 517q-34 0 -58 24t-24 58t24 59.5t58 25.5t57.5 -25.5t23.5 -59.5t-23.5 -58t-57.5 -24z" />
    <glyph glyph-name="seenThreedotsbelow-ar.init" unicode="&#x69b;" horiz-adv-x="1050" 
d="M0 -5l10 168q34 0 55.5 6.5t34.5 27t23 61.5t21 110l165 -26q-3 -20 -8.5 -55t-5.5 -64q0 -25 16.5 -42t62.5 -17q32 0 51.5 6t31.5 27t21 63.5t20 115.5l168 -26q-6 -34 -12.5 -73.5t-6.5 -60.5q0 -22 19 -37.5t67 -15.5q53 0 72.5 15.5t19.5 52.5q0 40 -15 101.5
t-40 134.5l166 49q18 -50 31 -103.5t20.5 -102.5t7.5 -85q0 -73 -32 -124.5t-89.5 -78.5t-131.5 -27q-67 0 -108.5 20t-60.5 72q-22 -42 -50 -61.5t-63 -25t-77 -5.5q-46 0 -90.5 12.5t-75.5 61.5q-40 -46 -96 -60t-121 -14zM463 -137q-20 0 -34.5 14t-14.5 36
q0 20 14.5 35.5t34.5 15.5q22 0 36 -15.5t14 -35.5q0 -22 -14 -36t-36 -14zM593 -137q-22 0 -36 14t-14 36q0 20 14 35.5t36 15.5q21 0 35 -15.5t14 -35.5q0 -22 -14 -36t-35 -14zM526 -243q-21 0 -35 14.5t-14 34.5t14 36t35 16t35.5 -16t14.5 -36t-14.5 -34.5t-35.5 -14.5
z" />
    <glyph glyph-name="seenThreedotsbelow-ar.medi" unicode="&#x69b;" horiz-adv-x="1116" 
d="M0 -5l10 168q34 0 55.5 6.5t34.5 27t23 61.5t21 110l165 -26q-3 -20 -8.5 -52t-5.5 -57q0 -33 17 -51t66 -18q29 0 48 6t32 27t22 63.5t18 115.5l168 -26q-8 -40 -13.5 -77t-5.5 -57q0 -22 20 -37.5t74 -15.5q50 0 67.5 20.5t17.5 64.5q0 32 -3 77.5t-11 112.5l165 13
q8 -93 17.5 -150t25 -87t41 -40.5t65.5 -10.5q48 0 69 -24t21 -58q0 -38 -25 -62t-75 -24q-18 0 -44 3t-54.5 14t-54.5 34t-44 62q-24 -57 -67 -85t-121 -28q-54 0 -99 19.5t-62 66.5q-20 -37 -45 -55.5t-59.5 -24.5t-83.5 -6q-46 0 -90.5 14.5t-75.5 62.5
q-40 -44 -95.5 -60.5t-120.5 -16.5zM435 -137q-20 0 -34.5 14t-14.5 36q0 20 14.5 35.5t34.5 15.5q22 0 36 -15.5t14 -35.5q0 -22 -14 -36t-36 -14zM565 -137q-22 0 -36 14t-14 36q0 20 14 35.5t36 15.5q21 0 35 -15.5t14 -35.5q0 -22 -14 -36t-35 -14zM498 -243
q-21 0 -35 14.5t-14 34.5t14 36t35 16t35.5 -16t14.5 -36t-14.5 -34.5t-35.5 -14.5z" />
    <glyph glyph-name="seenThreedotsbelow-ar.fina" unicode="&#x69b;" horiz-adv-x="1546" 
d="M370 -232q-70 0 -132.5 15t-110.5 47t-75.5 82t-27.5 120q0 28 4 59t15.5 72t35.5 99l156 -53q-14 -39 -21.5 -63.5t-10 -43t-2.5 -39.5q0 -54 41.5 -90.5t124.5 -36.5q95 0 145.5 36t50.5 114q0 38 -17 105.5t-40 143.5l178 45q14 -59 23.5 -95t14.5 -51
q14 -44 31.5 -57.5t58.5 -12.5q27 0 45 6.5t30.5 27t22 63t18.5 115.5l168 -26q-8 -40 -13.5 -77t-5.5 -57q0 -22 20 -37.5t74 -15.5q50 0 67.5 20.5t17.5 64.5q0 32 -3 77.5t-11 112.5l165 13q9 -104 20.5 -162.5t28.5 -85.5t41.5 -33.5t58.5 -6.5q48 0 69 -24t21 -58
q0 -38 -25 -62t-75 -24q-33 0 -70.5 9t-71 33.5t-55.5 69.5q-17 -43 -45.5 -67.5t-63 -34.5t-70.5 -10q-71 0 -112.5 21.5t-56.5 63.5q-29 -54 -70 -69.5t-94 -15.5q-18 0 -45 4t-52 18q-9 -61 -43 -107.5t-86 -78t-114 -47.5t-127 -16zM939 -132q-20 0 -34.5 14t-14.5 36
q0 20 14.5 35.5t34.5 15.5q22 0 36 -15.5t14 -35.5q0 -22 -14 -36t-36 -14zM1069 -132q-22 0 -36 14t-14 36q0 20 14 35.5t36 15.5q21 0 35 -15.5t14 -35.5q0 -22 -14 -36t-35 -14zM1002 -238q-21 0 -35 14.5t-14 34.5t14 36t35 16t35.5 -16t14.5 -36t-14.5 -34.5
t-35.5 -14.5z" />
    <glyph glyph-name="sadTwodotsbelow-ar.init" unicode="&#x69d;" horiz-adv-x="1035" 
d="M540 -18q-86 0 -145.5 7.5t-98.5 21t-64 31.5t-43 38q-38 -53 -88.5 -69t-100.5 -16l10 168q28 0 43.5 10.5t25 34t18.5 63t24 98.5l162 -40q-11 -43 -16 -67t-5 -37q0 -21 8 -35.5t36 -23.5q61 90 135 159t154 108.5t157 39.5q72 0 123 -28.5t78 -78.5t27 -115
q0 -82 -44.5 -142.5t-141.5 -93.5t-254 -33zM733 301q-33 0 -74 -19t-83.5 -53t-80.5 -78q97 0 158.5 6.5t94.5 18t45.5 27.5t12.5 36q0 27 -18 44.5t-55 17.5zM624 -250q-31 0 -51.5 21t-20.5 52t20.5 52t51.5 21t53 -21t22 -52t-22 -52t-53 -21zM446 -250q-31 0 -52 21
t-21 52t21 52t52 21q30 0 52 -21t22 -52t-22 -52t-52 -21z" />
    <glyph glyph-name="sadTwodotsbelow-ar.medi" unicode="&#x69d;" horiz-adv-x="1056" 
d="M540 -18q-86 0 -145.5 7.5t-98.5 21t-64 31.5t-43 38q-38 -53 -88.5 -69t-100.5 -16l10 168q28 0 43.5 10.5t25 34t18.5 63t24 98.5l162 -40q-11 -43 -16 -67t-5 -37q0 -21 8 -35.5t36 -23.5q61 90 135 159t154 108.5t157 39.5q72 0 123 -28.5t78 -78.5t27 -115
q0 -82 -44.5 -142.5t-141.5 -93.5t-254 -33zM733 301q-33 0 -74 -19t-83.5 -53t-80.5 -78q97 0 158.5 6.5t94.5 18t45.5 27.5t12.5 36q0 27 -18 44.5t-55 17.5zM1056 -5q-102 0 -167.5 25.5t-96.5 50.5l95 122q37 -16 75.5 -23t102.5 -7q49 0 70 -24t21 -58q0 -38 -25.5 -62
t-74.5 -24zM624 -250q-31 0 -51.5 21t-20.5 52t20.5 52t51.5 21t53 -21t22 -52t-22 -52t-53 -21zM446 -250q-31 0 -52 21t-21 52t21 52t52 21q30 0 52 -21t22 -52t-22 -52t-52 -21z" />
    <glyph glyph-name="sadTwodotsbelow-ar.fina" unicode="&#x69d;" horiz-adv-x="1528" 
d="M368 -232q-70 0 -132 15t-110 47t-75 82t-27 121q0 27 4 58t15.5 72t35.5 99l156 -54q-14 -39 -21.5 -63.5t-10 -42.5t-2.5 -39q0 -55 41.5 -91t123.5 -36q95 0 146 36t51 109q0 49 -17.5 115t-39.5 139l178 45q14 -58 23.5 -94.5t14.5 -51.5q8 -22 20.5 -37.5
t47.5 -25.5q43 62 94.5 117t109 98t119 67.5t124.5 24.5q71 0 122 -29.5t78.5 -80t27.5 -112.5q0 -82 -44.5 -142.5t-141.5 -93.5t-254 -33q-43 0 -94 4t-100.5 13.5t-88.5 27.5q-5 -65 -38.5 -114.5t-86.5 -82.5t-117 -50t-132 -17zM1218 306q-39 0 -80.5 -21.5t-82 -56
t-76.5 -72.5h14q92 0 150.5 6.5t90.5 18t44 27.5t12 36q0 23 -17 42.5t-55 19.5zM1528 -5q-102 0 -167.5 25.5t-96.5 50.5l95 122q37 -16 75.5 -23t102.5 -7q49 0 70 -24t21 -58q0 -38 -25.5 -62t-74.5 -24zM1078 -245q-31 0 -51.5 21t-20.5 52t20.5 52t51.5 21t53 -21
t22 -52t-22 -52t-53 -21zM900 -245q-31 0 -52 21t-21 52t21 52t52 21q30 0 52 -21t22 -52t-22 -52t-52 -21z" />
    <glyph glyph-name="sadThreedots-ar.init" unicode="&#x69e;" horiz-adv-x="1035" 
d="M540 -18q-86 0 -145.5 7.5t-98.5 21t-64 31.5t-43 38q-38 -53 -88.5 -69t-100.5 -16l10 168q28 0 43.5 10.5t25 34t18.5 63t24 98.5l162 -40q-11 -43 -16 -67t-5 -37q0 -21 8 -35.5t36 -23.5q61 90 135 159t154 108.5t157 39.5q72 0 123 -28.5t78 -78.5t27 -115
q0 -82 -44.5 -142.5t-141.5 -93.5t-254 -33zM733 301q-33 0 -74 -19t-83.5 -53t-80.5 -78q97 0 158.5 6.5t94.5 18t45.5 27.5t12.5 36q0 27 -18 44.5t-55 17.5zM725 721q-32 0 -53 21.5t-21 50.5q0 31 21 53t53 22q31 0 52.5 -22t21.5 -53q0 -29 -21.5 -50.5t-52.5 -21.5z
M640 564q-32 0 -54 23t-22 53q0 28 22 51.5t54 23.5q28 0 50 -23.5t22 -51.5q0 -30 -22 -53t-50 -23zM813 564q-30 0 -50 23t-20 53q0 28 20 51.5t50 23.5q31 0 53 -23.5t22 -51.5q0 -30 -22 -53t-53 -23z" />
    <glyph glyph-name="sadThreedots-ar.medi" unicode="&#x69e;" horiz-adv-x="1056" 
d="M540 -18q-86 0 -145.5 7.5t-98.5 21t-64 31.5t-43 38q-38 -53 -88.5 -69t-100.5 -16l10 168q28 0 43.5 10.5t25 34t18.5 63t24 98.5l162 -40q-11 -43 -16 -67t-5 -37q0 -21 8 -35.5t36 -23.5q61 90 135 159t154 108.5t157 39.5q72 0 123 -28.5t78 -78.5t27 -115
q0 -82 -44.5 -142.5t-141.5 -93.5t-254 -33zM733 301q-33 0 -74 -19t-83.5 -53t-80.5 -78q97 0 158.5 6.5t94.5 18t45.5 27.5t12.5 36q0 27 -18 44.5t-55 17.5zM1056 -5q-102 0 -167.5 25.5t-96.5 50.5l95 122q37 -16 75.5 -23t102.5 -7q49 0 70 -24t21 -58q0 -38 -25.5 -62
t-74.5 -24zM725 721q-32 0 -53 21.5t-21 50.5q0 31 21 53t53 22q31 0 52.5 -22t21.5 -53q0 -29 -21.5 -50.5t-52.5 -21.5zM640 564q-32 0 -54 23t-22 53q0 28 22 51.5t54 23.5q28 0 50 -23.5t22 -51.5q0 -30 -22 -53t-50 -23zM813 564q-30 0 -50 23t-20 53q0 28 20 51.5
t50 23.5q31 0 53 -23.5t22 -51.5q0 -30 -22 -53t-53 -23z" />
    <glyph glyph-name="sadThreedots-ar.fina" unicode="&#x69e;" horiz-adv-x="1528" 
d="M368 -232q-70 0 -132 15t-110 47t-75 82t-27 121q0 27 4 58t15.5 72t35.5 99l156 -54q-14 -39 -21.5 -63.5t-10 -42.5t-2.5 -39q0 -55 41.5 -91t123.5 -36q95 0 146 36t51 109q0 49 -17.5 115t-39.5 139l178 45q14 -58 23.5 -94.5t14.5 -51.5q8 -22 20.5 -37.5
t47.5 -25.5q43 62 94.5 117t109 98t119 67.5t124.5 24.5q71 0 122 -29.5t78.5 -80t27.5 -112.5q0 -82 -44.5 -142.5t-141.5 -93.5t-254 -33q-43 0 -94 4t-100.5 13.5t-88.5 27.5q-5 -65 -38.5 -114.5t-86.5 -82.5t-117 -50t-132 -17zM1218 306q-39 0 -80.5 -21.5t-82 -56
t-76.5 -72.5h14q92 0 150.5 6.5t90.5 18t44 27.5t12 36q0 23 -17 42.5t-55 19.5zM1528 -5q-102 0 -167.5 25.5t-96.5 50.5l95 122q37 -16 75.5 -23t102.5 -7q49 0 70 -24t21 -58q0 -38 -25.5 -62t-74.5 -24zM1202 726q-32 0 -53 21.5t-21 50.5q0 31 21 53t53 22
q31 0 52.5 -22t21.5 -53q0 -29 -21.5 -50.5t-52.5 -21.5zM1117 569q-32 0 -54 23t-22 53q0 28 22 51.5t54 23.5q28 0 50 -23.5t22 -51.5q0 -30 -22 -53t-50 -23zM1290 569q-30 0 -50 23t-20 53q0 28 20 51.5t50 23.5q31 0 53 -23.5t22 -51.5q0 -30 -22 -53t-53 -23z" />
    <glyph glyph-name="tahThreedots-ar.init" unicode="&#x69f;" horiz-adv-x="790" 
d="M0 -5l10 168h40q26 38 54 73l-17 524h173l13 -360q58 41 117 63.5t117 22.5q71 0 122 -29.5t78.5 -80t27.5 -112.5q0 -77 -38.5 -134t-122.5 -91q-52 -21 -122.5 -32t-161.5 -11zM491 315q-33 0 -74 -19.5t-84.5 -53.5t-83.5 -79q97 0 158 6.5t94.5 18t46 28.5t12.5 37
q0 25 -16.5 43.5t-52.5 18.5zM506 708q-32 0 -53 21.5t-21 50.5q0 31 21 53t53 22q31 0 52.5 -22t21.5 -53q0 -29 -21.5 -50.5t-52.5 -21.5zM421 551q-32 0 -54 23t-22 53q0 28 22 51.5t54 23.5q28 0 50 -23.5t22 -51.5q0 -30 -22 -53t-50 -23zM594 551q-30 0 -50 23t-20 53
q0 28 20 51.5t50 23.5q31 0 53 -23.5t22 -51.5q0 -30 -22 -53t-53 -23z" />
    <glyph glyph-name="tahThreedots-ar.medi" unicode="&#x69f;" horiz-adv-x="804" 
d="M0 -5l10 168h40q26 38 54 73l-17 524h173l13 -360q58 41 117 63.5t117 22.5q71 0 122 -29.5t78.5 -80t27.5 -112.5q0 -77 -38.5 -134t-122.5 -91q-52 -21 -122.5 -32t-161.5 -11zM491 315q-33 0 -74 -19.5t-84.5 -53.5t-83.5 -79q97 0 158 6.5t94.5 18t46 28.5t12.5 37
q0 25 -16.5 43.5t-52.5 18.5zM804 -5q-102 0 -167.5 25.5t-96.5 50.5l95 122q37 -16 75.5 -23t102.5 -7q49 0 70 -24t21 -58q0 -38 -25.5 -62t-74.5 -24zM506 708q-32 0 -53 21.5t-21 50.5q0 31 21 53t53 22q31 0 52.5 -22t21.5 -53q0 -29 -21.5 -50.5t-52.5 -21.5zM421 551
q-32 0 -54 23t-22 53q0 28 22 51.5t54 23.5q28 0 50 -23.5t22 -51.5q0 -30 -22 -53t-50 -23zM594 551q-30 0 -50 23t-20 53q0 28 20 51.5t50 23.5q31 0 53 -23.5t22 -51.5q0 -30 -22 -53t-53 -23z" />
    <glyph glyph-name="tahThreedots-ar.fina" unicode="&#x69f;" horiz-adv-x="908" 
d="M399 -13q-91 0 -189.5 4t-189.5 15l20 166q35 -3 65 -5.5t56 -4.5q23 34 48 66l-17 532h173l13 -367q57 40 116 62t118 22q68 0 119 -27.5t79.5 -77.5t28.5 -117q0 -81 -44.5 -141.5t-141.5 -93.5t-254 -33zM594 305q-39 0 -80.5 -20.5t-82.5 -55t-78 -74.5h14
q92 0 150.5 6.5t90.5 18t44 27.5t12 35q0 28 -16.5 45.5t-53.5 17.5zM908 -5q-102 0 -167.5 25.5t-96.5 50.5l95 122q37 -16 75.5 -23t102.5 -7q49 0 70 -24t21 -58q0 -38 -25.5 -62t-74.5 -24zM611 699q-32 0 -53 21.5t-21 50.5q0 31 21 53t53 22q31 0 52.5 -22t21.5 -53
q0 -29 -21.5 -50.5t-52.5 -21.5zM526 542q-32 0 -54 23t-22 53q0 28 22 51.5t54 23.5q28 0 50 -23.5t22 -51.5q0 -30 -22 -53t-50 -23zM699 542q-30 0 -50 23t-20 53q0 28 20 51.5t50 23.5q31 0 53 -23.5t22 -51.5q0 -30 -22 -53t-53 -23z" />
    <glyph glyph-name="ainThreedots-ar.init" unicode="&#x6a0;" horiz-adv-x="600" 
d="M0 -5l10 168q40 0 62 1t35.5 2.5t27.5 3.5q-17 16 -38.5 52t-21.5 96q0 64 34.5 112.5t93.5 75.5t130 27q37 0 65.5 -4t60.5 -12l-25 -157q-21 6 -43.5 8.5t-37.5 2.5q-46 0 -72.5 -19t-26.5 -55q0 -37 29 -66.5t70 -32.5q0 1 34.5 11.5t119.5 45.5l48 -147
q-95 -42 -183 -67t-179 -35.5t-193 -10.5zM283 781q-32 0 -53 21.5t-21 50.5q0 31 21 53t53 22q31 0 52.5 -22t21.5 -53q0 -29 -21.5 -50.5t-52.5 -21.5zM198 624q-32 0 -54 23t-22 53q0 28 22 51.5t54 23.5q28 0 50 -23.5t22 -51.5q0 -30 -22 -53t-50 -23zM371 624
q-30 0 -50 23t-20 53q0 28 20 51.5t50 23.5q31 0 53 -23.5t22 -51.5q0 -30 -22 -53t-53 -23z" />
    <glyph glyph-name="ainThreedots-ar.medi" unicode="&#x6a0;" horiz-adv-x="577" 
d="M0 -5l10 168q72 0 133 9q-19 21 -40 42.5t-42 42.5q-3 3 -8 18t-9 32t-4 27q0 41 36.5 81t99.5 66t144 26q110 0 160.5 -43t50.5 -114q0 -49 -22 -95.5t-61 -87.5q52 -4 139 -4q48 0 69 -24t21 -58q0 -38 -25.5 -62t-74.5 -24q-76 0 -149.5 14.5t-141.5 46.5
q-64 -29 -136.5 -45t-149.5 -16zM197 338q32 -31 58 -59t48 -54q59 39 59 91q0 20 -14 34.5t-54 14.5q-19 0 -46.5 -6.5t-50.5 -20.5zM322 755q-32 0 -53 21.5t-21 50.5q0 31 21 53t53 22q31 0 52.5 -22t21.5 -53q0 -29 -21.5 -50.5t-52.5 -21.5zM237 598q-32 0 -54 23
t-22 53q0 28 22 51.5t54 23.5q28 0 50 -23.5t22 -51.5q0 -30 -22 -53t-50 -23zM410 598q-30 0 -50 23t-20 53q0 28 20 51.5t50 23.5q31 0 53 -23.5t22 -51.5q0 -30 -22 -53t-53 -23z" />
    <glyph glyph-name="ainThreedots-ar.fina" unicode="&#x6a0;" horiz-adv-x="628" 
d="M318 -271q-104 0 -179.5 25t-117 75.5t-41.5 128.5q0 68 28.5 119.5t73 91.5t91.5 73q-33 47 -64 77.5t-56 55.5q-5 5 -10.5 21.5t-9 33.5t-3.5 24q0 38 35 78.5t99 67.5t152 27q103 0 154 -43t51 -114q0 -70 -32 -124t-77 -98q69 -46 121.5 -65.5t104.5 -19.5
q48 0 69 -24t21 -58q0 -38 -25 -62t-75 -24q-58 0 -112.5 16t-111.5 48t-123 82q-49 -39 -84.5 -77.5t-35.5 -83.5q0 -34 23 -51.5t59.5 -24.5t77.5 -7q43 0 92 10.5t107 35.5l53 -147q-65 -34 -131 -50.5t-124 -16.5zM187 458q28 -27 57.5 -58t55.5 -63q24 22 38 46.5
t14 52.5q0 22 -16 35.5t-45 13.5q-30 0 -55.5 -7t-48.5 -20zM319 875q-32 0 -53 21.5t-21 50.5q0 31 21 53t53 22q31 0 52.5 -22t21.5 -53q0 -29 -21.5 -50.5t-52.5 -21.5zM234 718q-32 0 -54 23t-22 53q0 28 22 51.5t54 23.5q28 0 50 -23.5t22 -51.5q0 -30 -22 -53t-50 -23
zM407 718q-30 0 -50 23t-20 53q0 28 20 51.5t50 23.5q31 0 53 -23.5t22 -51.5q0 -30 -22 -53t-53 -23z" />
    <glyph glyph-name="dotlessfeh-ar.init" unicode="&#x6a1;" horiz-adv-x="550" 
d="M0 -5l10 168q94 0 163 0.5t97 11.5q29 11 42 37q-40 -16 -85 -16q-71 0 -119 41t-48 116q0 61 27 116t76 90t115 35t114.5 -36.5t75.5 -104t27 -160.5q0 -90 -27 -152t-84 -95q-61 -35 -157.5 -43t-226.5 -8zM221 384q0 -22 14.5 -35t39.5 -13q11 0 24 2t28 7
q-5 59 -21 85t-38 26q-20 0 -33.5 -19.5t-13.5 -52.5z" />
    <glyph glyph-name="dotlessfeh-ar.medi" unicode="&#x6a1;" horiz-adv-x="549" 
d="M0 -5l10 168q15 0 40.5 1.5t54.5 4.5q-21 28 -32.5 58.5t-11.5 67.5q0 44 19.5 81.5t51.5 65.5t71 43.5t79 15.5q59 0 106.5 -28.5t75.5 -73.5t28 -96q0 -42 -12.5 -76.5t-33.5 -61.5q27 -2 55.5 -2h57.5q48 0 69 -24t21 -58q0 -38 -25.5 -62t-74.5 -24q-80 0 -154.5 11
t-124.5 31q-30 -12 -68.5 -20t-78 -13t-72.5 -7t-51 -2zM227 281q0 -17 9.5 -35.5t34.5 -39.5q29 16 42 37.5t13 44.5q0 24 -14.5 42.5t-32.5 18.5t-35 -18.5t-17 -49.5z" />
    <glyph glyph-name="dotlessfeh-ar.fina" unicode="&#x6a1;" horiz-adv-x="1125" 
d="M454 -21q-126 0 -208 20t-128 54t-65 77t-19 89q0 59 14 113.5t26 92.5l147 -35q-7 -31 -13.5 -62.5t-6.5 -59.5q0 -36 25.5 -63t86.5 -42.5t167 -15.5q49 0 103 5t101 12q-22 30 -34.5 61.5t-12.5 69.5q0 55 31 101.5t81.5 75.5t108.5 29q62 0 109 -29.5t74 -75
t27 -93.5q0 -42 -12 -75.5t-33 -61.5q27 -2 55 -2.5t57 -0.5q48 0 69 -24t21 -58q0 -38 -25.5 -62t-74.5 -24q-80 0 -154.5 11t-124.5 31q-32 -12 -80 -23t-103 -18.5t-109.5 -12t-99.5 -4.5zM803 280q0 -17 9.5 -35t34.5 -39q29 16 42 35.5t13 42.5q0 22 -13 43.5t-34 21.5
q-20 0 -36 -20.5t-16 -48.5z" />
    <glyph glyph-name="fehDotbelow-ar.init" unicode="&#x6a2;" horiz-adv-x="550" 
d="M0 -5l10 168q94 0 163 0.5t97 11.5q29 11 42 37q-40 -16 -85 -16q-71 0 -119 41t-48 116q0 61 27 116t76 90t115 35t114.5 -36.5t75.5 -104t27 -160.5q0 -90 -27 -152t-84 -95q-61 -35 -157.5 -43t-226.5 -8zM221 384q0 -22 14.5 -35t39.5 -13q11 0 24 2t28 7
q-5 59 -21 85t-38 26q-20 0 -33.5 -19.5t-13.5 -52.5zM230 -268q-34 0 -58 23.5t-24 57.5q0 35 24 59.5t58 24.5t57.5 -24.5t23.5 -59.5q0 -34 -23.5 -57.5t-57.5 -23.5z" />
    <glyph glyph-name="fehDotbelow-ar.medi" unicode="&#x6a2;" horiz-adv-x="549" 
d="M0 -5l10 168q15 0 40.5 1.5t54.5 4.5q-21 28 -32.5 58.5t-11.5 67.5q0 44 19.5 81.5t51.5 65.5t71 43.5t79 15.5q59 0 106.5 -28.5t75.5 -73.5t28 -96q0 -42 -12.5 -76.5t-33.5 -61.5q27 -2 55.5 -2h57.5q48 0 69 -24t21 -58q0 -38 -25.5 -62t-74.5 -24q-80 0 -154.5 11
t-124.5 31q-30 -12 -68.5 -20t-78 -13t-72.5 -7t-51 -2zM227 281q0 -17 9.5 -35.5t34.5 -39.5q29 16 42 37.5t13 44.5q0 24 -14.5 42.5t-32.5 18.5t-35 -18.5t-17 -49.5zM273 -267q-34 0 -58 23.5t-24 57.5q0 35 24 59.5t58 24.5t57.5 -24.5t23.5 -59.5q0 -34 -23.5 -57.5
t-57.5 -23.5z" />
    <glyph glyph-name="fehDotbelow-ar.fina" unicode="&#x6a2;" horiz-adv-x="1125" 
d="M454 -21q-126 0 -208 20t-128 54t-65 77t-19 89q0 59 14 113.5t26 92.5l147 -35q-7 -31 -13.5 -62.5t-6.5 -59.5q0 -36 25.5 -63t86.5 -42.5t167 -15.5q49 0 103 5t101 12q-22 30 -34.5 61.5t-12.5 69.5q0 55 31 101.5t81.5 75.5t108.5 29q62 0 109 -29.5t74 -75
t27 -93.5q0 -42 -12 -75.5t-33 -61.5q27 -2 55 -2.5t57 -0.5q48 0 69 -24t21 -58q0 -38 -25.5 -62t-74.5 -24q-80 0 -154.5 11t-124.5 31q-32 -12 -80 -23t-103 -18.5t-109.5 -12t-99.5 -4.5zM803 280q0 -17 9.5 -35t34.5 -39q29 16 42 35.5t13 42.5q0 22 -13 43.5t-34 21.5
q-20 0 -36 -20.5t-16 -48.5zM477 -268q-34 0 -58 23.5t-24 57.5q0 35 24 59.5t58 24.5t57.5 -24.5t23.5 -59.5q0 -34 -23.5 -57.5t-57.5 -23.5z" />
    <glyph glyph-name="fehDotaboveDotbelow-ar.init" unicode="&#x6a3;" horiz-adv-x="550" 
d="M0 -5l10 168q94 0 163 0.5t97 11.5q29 11 42 37q-40 -16 -85 -16q-71 0 -119 41t-48 116q0 61 27 116t76 90t115 35t114.5 -36.5t75.5 -104t27 -160.5q0 -90 -27 -152t-84 -95q-61 -35 -157.5 -43t-226.5 -8zM221 384q0 -22 14.5 -35t39.5 -13q11 0 24 2t28 7
q-5 59 -21 85t-38 26q-20 0 -33.5 -19.5t-13.5 -52.5zM269 685q-34 0 -58 24t-24 58t24 59.5t58 25.5t57.5 -25.5t23.5 -59.5t-23.5 -58t-57.5 -24zM230 -268q-34 0 -58 23.5t-24 57.5q0 35 24 59.5t58 24.5t57.5 -24.5t23.5 -59.5q0 -34 -23.5 -57.5t-57.5 -23.5z" />
    <glyph glyph-name="fehDotaboveDotbelow-ar.medi" unicode="&#x6a3;" horiz-adv-x="549" 
d="M0 -5l10 168q15 0 40.5 1.5t54.5 4.5q-21 28 -32.5 58.5t-11.5 67.5q0 44 19.5 81.5t51.5 65.5t71 43.5t79 15.5q59 0 106.5 -28.5t75.5 -73.5t28 -96q0 -42 -12.5 -76.5t-33.5 -61.5q27 -2 55.5 -2h57.5q48 0 69 -24t21 -58q0 -38 -25.5 -62t-74.5 -24q-80 0 -154.5 11
t-124.5 31q-30 -12 -68.5 -20t-78 -13t-72.5 -7t-51 -2zM227 281q0 -17 9.5 -35.5t34.5 -39.5q29 16 42 37.5t13 44.5q0 24 -14.5 42.5t-32.5 18.5t-35 -18.5t-17 -49.5zM283 592q-34 0 -58 24t-24 58t24 59.5t58 25.5t57.5 -25.5t23.5 -59.5t-23.5 -58t-57.5 -24zM273 -267
q-34 0 -58 23.5t-24 57.5q0 35 24 59.5t58 24.5t57.5 -24.5t23.5 -59.5q0 -34 -23.5 -57.5t-57.5 -23.5z" />
    <glyph glyph-name="fehDotaboveDotbelow-ar.fina" unicode="&#x6a3;" horiz-adv-x="1125" 
d="M454 -21q-126 0 -208 20t-128 54t-65 77t-19 89q0 59 14 113.5t26 92.5l147 -35q-7 -31 -13.5 -62.5t-6.5 -59.5q0 -36 25.5 -63t86.5 -42.5t167 -15.5q49 0 103 5t101 12q-22 30 -34.5 61.5t-12.5 69.5q0 55 31 101.5t81.5 75.5t108.5 29q62 0 109 -29.5t74 -75
t27 -93.5q0 -42 -12 -75.5t-33 -61.5q27 -2 55 -2.5t57 -0.5q48 0 69 -24t21 -58q0 -38 -25.5 -62t-74.5 -24q-80 0 -154.5 11t-124.5 31q-32 -12 -80 -23t-103 -18.5t-109.5 -12t-99.5 -4.5zM803 280q0 -17 9.5 -35t34.5 -39q29 16 42 35.5t13 42.5q0 22 -13 43.5t-34 21.5
q-20 0 -36 -20.5t-16 -48.5zM859 592q-34 0 -58 24t-24 58t24 59.5t58 25.5t57.5 -25.5t23.5 -59.5t-23.5 -58t-57.5 -24zM477 -268q-34 0 -58 23.5t-24 57.5q0 35 24 59.5t58 24.5t57.5 -24.5t23.5 -59.5q0 -34 -23.5 -57.5t-57.5 -23.5z" />
    <glyph glyph-name="fehThreedotsbelow-ar.init" unicode="&#x6a5;" horiz-adv-x="550" 
d="M0 -5l10 168q94 0 163 0.5t97 11.5q29 11 42 37q-40 -16 -85 -16q-71 0 -119 41t-48 116q0 61 27 116t76 90t115 35t114.5 -36.5t75.5 -104t27 -160.5q0 -90 -27 -152t-84 -95q-61 -35 -157.5 -43t-226.5 -8zM221 384q0 -22 14.5 -35t39.5 -13q11 0 24 2t28 7
q-5 59 -21 85t-38 26q-20 0 -33.5 -19.5t-13.5 -52.5zM167 -157q-20 0 -34.5 14t-14.5 36q0 20 14.5 35.5t34.5 15.5q22 0 36 -15.5t14 -35.5q0 -22 -14 -36t-36 -14zM297 -157q-22 0 -36 14t-14 36q0 20 14 35.5t36 15.5q21 0 35 -15.5t14 -35.5q0 -22 -14 -36t-35 -14z
M230 -263q-21 0 -35 14.5t-14 34.5t14 36t35 16t35.5 -16t14.5 -36t-14.5 -34.5t-35.5 -14.5z" />
    <glyph glyph-name="fehThreedotsbelow-ar.medi" unicode="&#x6a5;" horiz-adv-x="549" 
d="M0 -5l10 168q15 0 40.5 1.5t54.5 4.5q-21 28 -32.5 58.5t-11.5 67.5q0 44 19.5 81.5t51.5 65.5t71 43.5t79 15.5q59 0 106.5 -28.5t75.5 -73.5t28 -96q0 -42 -12.5 -76.5t-33.5 -61.5q27 -2 55.5 -2h57.5q48 0 69 -24t21 -58q0 -38 -25.5 -62t-74.5 -24q-80 0 -154.5 11
t-124.5 31q-30 -12 -68.5 -20t-78 -13t-72.5 -7t-51 -2zM227 281q0 -17 9.5 -35.5t34.5 -39.5q29 16 42 37.5t13 44.5q0 24 -14.5 42.5t-32.5 18.5t-35 -18.5t-17 -49.5zM210 -156q-20 0 -34.5 14t-14.5 36q0 20 14.5 35.5t34.5 15.5q22 0 36 -15.5t14 -35.5q0 -22 -14 -36
t-36 -14zM340 -156q-22 0 -36 14t-14 36q0 20 14 35.5t36 15.5q21 0 35 -15.5t14 -35.5q0 -22 -14 -36t-35 -14zM273 -262q-21 0 -35 14.5t-14 34.5t14 36t35 16t35.5 -16t14.5 -36t-14.5 -34.5t-35.5 -14.5z" />
    <glyph glyph-name="fehThreedotsbelow-ar.fina" unicode="&#x6a5;" horiz-adv-x="1125" 
d="M454 -21q-126 0 -208 20t-128 54t-65 77t-19 89q0 59 14 113.5t26 92.5l147 -35q-7 -31 -13.5 -62.5t-6.5 -59.5q0 -36 25.5 -63t86.5 -42.5t167 -15.5q49 0 103 5t101 12q-22 30 -34.5 61.5t-12.5 69.5q0 55 31 101.5t81.5 75.5t108.5 29q62 0 109 -29.5t74 -75
t27 -93.5q0 -42 -12 -75.5t-33 -61.5q27 -2 55 -2.5t57 -0.5q48 0 69 -24t21 -58q0 -38 -25.5 -62t-74.5 -24q-80 0 -154.5 11t-124.5 31q-32 -12 -80 -23t-103 -18.5t-109.5 -12t-99.5 -4.5zM803 280q0 -17 9.5 -35t34.5 -39q29 16 42 35.5t13 42.5q0 22 -13 43.5t-34 21.5
q-20 0 -36 -20.5t-16 -48.5zM414 -157q-20 0 -34.5 14t-14.5 36q0 20 14.5 35.5t34.5 15.5q22 0 36 -15.5t14 -35.5q0 -22 -14 -36t-36 -14zM544 -157q-22 0 -36 14t-14 36q0 20 14 35.5t36 15.5q21 0 35 -15.5t14 -35.5q0 -22 -14 -36t-35 -14zM477 -263q-21 0 -35 14.5
t-14 34.5t14 36t35 16t35.5 -16t14.5 -36t-14.5 -34.5t-35.5 -14.5z" />
    <glyph glyph-name="qafDotabove-ar.init" unicode="&#x6a7;" horiz-adv-x="550" 
d="M0 -5l10 168q94 0 163 0.5t97 11.5q29 11 42 37q-40 -16 -85 -16q-71 0 -119 41t-48 116q0 61 27 116t76 90t115 35t114.5 -36.5t75.5 -104t27 -160.5q0 -90 -27 -152t-84 -95q-61 -35 -157.5 -43t-226.5 -8zM221 384q0 -22 14.5 -35t39.5 -13q11 0 24 2t28 7
q-5 59 -21 85t-38 26q-20 0 -33.5 -19.5t-13.5 -52.5zM269 685q-34 0 -58 24t-24 58t24 59.5t58 25.5t57.5 -25.5t23.5 -59.5t-23.5 -58t-57.5 -24z" />
    <glyph glyph-name="qafDotabove-ar.medi" unicode="&#x6a7;" horiz-adv-x="549" 
d="M0 -5l10 168q15 0 40.5 1.5t54.5 4.5q-21 28 -32.5 58.5t-11.5 67.5q0 44 19.5 81.5t51.5 65.5t71 43.5t79 15.5q59 0 106.5 -28.5t75.5 -73.5t28 -96q0 -42 -12.5 -76.5t-33.5 -61.5q27 -2 55.5 -2h57.5q48 0 69 -24t21 -58q0 -38 -25.5 -62t-74.5 -24q-80 0 -154.5 11
t-124.5 31q-30 -12 -68.5 -20t-78 -13t-72.5 -7t-51 -2zM227 281q0 -17 9.5 -35.5t34.5 -39.5q29 16 42 37.5t13 44.5q0 24 -14.5 42.5t-32.5 18.5t-35 -18.5t-17 -49.5zM283 592q-34 0 -58 24t-24 58t24 59.5t58 25.5t57.5 -25.5t23.5 -59.5t-23.5 -58t-57.5 -24z" />
    <glyph glyph-name="qafDotabove-ar.fina" unicode="&#x6a7;" horiz-adv-x="865" 
d="M364 -271q-95 0 -172 27t-122.5 85.5t-45.5 152.5q0 28 4 58.5t16 71.5t36 100l155 -55q-14 -39 -21.5 -63.5t-10 -42.5t-2.5 -38q0 -56 46 -92t143 -36q96 0 157 29t84 71q-65 4 -120 22t-88.5 55.5t-33.5 101.5q0 63 30 116.5t82.5 86.5t119.5 33q63 0 106.5 -32
t67 -88t28.5 -129h52q48 0 69 -24t21 -58q0 -38 -25.5 -62t-74.5 -24h-63q-6 -20 -14 -38t-17 -34q-50 -92 -153 -143t-254 -51zM557 213q0 -18 7 -31t28 -20t63 -7q-1 65 -11.5 92t-35.5 27t-38 -21t-13 -40zM622 503q-34 0 -58 24t-24 58t24 59.5t58 25.5t57.5 -25.5
t23.5 -59.5t-23.5 -58t-57.5 -24z" />
    <glyph glyph-name="qafThreedotsabove-ar.init" unicode="&#x6a8;" horiz-adv-x="550" 
d="M0 -5l10 168q94 0 163 0.5t97 11.5q29 11 42 37q-40 -16 -85 -16q-71 0 -119 41t-48 116q0 61 27 116t76 90t115 35t114.5 -36.5t75.5 -104t27 -160.5q0 -90 -27 -152t-84 -95q-61 -35 -157.5 -43t-226.5 -8zM221 384q0 -22 14.5 -35t39.5 -13q11 0 24 2t28 7
q-5 59 -21 85t-38 26q-20 0 -33.5 -19.5t-13.5 -52.5zM271 842q-32 0 -53 21.5t-21 50.5q0 31 21 53t53 22q31 0 52.5 -22t21.5 -53q0 -29 -21.5 -50.5t-52.5 -21.5zM186 685q-32 0 -54 23t-22 53q0 28 22 51.5t54 23.5q28 0 50 -23.5t22 -51.5q0 -30 -22 -53t-50 -23z
M359 685q-30 0 -50 23t-20 53q0 28 20 51.5t50 23.5q31 0 53 -23.5t22 -51.5q0 -30 -22 -53t-53 -23z" />
    <glyph glyph-name="qafThreedotsabove-ar.medi" unicode="&#x6a8;" horiz-adv-x="549" 
d="M0 -5l10 168q15 0 40.5 1.5t54.5 4.5q-21 28 -32.5 58.5t-11.5 67.5q0 44 19.5 81.5t51.5 65.5t71 43.5t79 15.5q59 0 106.5 -28.5t75.5 -73.5t28 -96q0 -42 -12.5 -76.5t-33.5 -61.5q27 -2 55.5 -2h57.5q48 0 69 -24t21 -58q0 -38 -25.5 -62t-74.5 -24q-80 0 -154.5 11
t-124.5 31q-30 -12 -68.5 -20t-78 -13t-72.5 -7t-51 -2zM227 281q0 -17 9.5 -35.5t34.5 -39.5q29 16 42 37.5t13 44.5q0 24 -14.5 42.5t-32.5 18.5t-35 -18.5t-17 -49.5zM285 749q-32 0 -53 21.5t-21 50.5q0 31 21 53t53 22q31 0 52.5 -22t21.5 -53q0 -29 -21.5 -50.5
t-52.5 -21.5zM200 592q-32 0 -54 23t-22 53q0 28 22 51.5t54 23.5q28 0 50 -23.5t22 -51.5q0 -30 -22 -53t-50 -23zM373 592q-30 0 -50 23t-20 53q0 28 20 51.5t50 23.5q31 0 53 -23.5t22 -51.5q0 -30 -22 -53t-53 -23z" />
    <glyph glyph-name="qafThreedotsabove-ar.fina" unicode="&#x6a8;" horiz-adv-x="865" 
d="M364 -271q-95 0 -172 27t-122.5 85.5t-45.5 152.5q0 28 4 58.5t16 71.5t36 100l155 -55q-14 -39 -21.5 -63.5t-10 -42.5t-2.5 -38q0 -56 46 -92t143 -36q96 0 157 29t84 71q-65 4 -120 22t-88.5 55.5t-33.5 101.5q0 63 30 116.5t82.5 86.5t119.5 33q63 0 106.5 -32
t67 -88t28.5 -129h52q48 0 69 -24t21 -58q0 -38 -25.5 -62t-74.5 -24h-63q-6 -20 -14 -38t-17 -34q-50 -92 -153 -143t-254 -51zM557 213q0 -18 7 -31t28 -20t63 -7q-1 65 -11.5 92t-35.5 27t-38 -21t-13 -40zM624 660q-32 0 -53 21.5t-21 50.5q0 31 21 53t53 22
q31 0 52.5 -22t21.5 -53q0 -29 -21.5 -50.5t-52.5 -21.5zM539 503q-32 0 -54 23t-22 53q0 28 22 51.5t54 23.5q28 0 50 -23.5t22 -51.5q0 -30 -22 -53t-50 -23zM712 503q-30 0 -50 23t-20 53q0 28 20 51.5t50 23.5q31 0 53 -23.5t22 -51.5q0 -30 -22 -53t-53 -23z" />
    <glyph glyph-name="kafswash-ar.init" unicode="&#x6aa;" horiz-adv-x="845" 
d="M0 -5l10 168h327h158t94.5 1.5t46.5 6.5t13 16t-17 18t-64.5 14t-141.5 18q-118 15 -187.5 33t-99.5 48t-30 79q0 57 34 100t93.5 75t137 54.5t164.5 38.5l34 -146q-133 -22 -211.5 -47t-78.5 -46q0 -8 17 -14t58 -12t111 -14q125 -14 199 -37.5t106 -65t32 -108.5
q0 -53 -23.5 -87.5t-77.5 -54.5t-144 -28.5t-223 -8.5z" />
    <glyph glyph-name="kafswash-ar.medi" unicode="&#x6aa;" horiz-adv-x="961" 
d="M0 -5l10 168h327h158t94.5 1.5t46.5 6.5t13 16t-17 18t-64.5 14t-141.5 18q-118 15 -187.5 33t-99.5 48t-30 79q0 57 34 100t93.5 75t137 54.5t164.5 38.5l34 -146q-133 -22 -211.5 -47t-78.5 -46q0 -8 17 -14t58 -12t111 -14q125 -14 199 -37.5t106 -65t32 -108.5
q0 -53 -23.5 -87.5t-77.5 -54.5t-144 -28.5t-223 -8.5zM961 -5q-102 0 -167.5 25.5t-96.5 50.5l95 122q37 -16 75.5 -23t102.5 -7q49 0 70 -24t21 -58q0 -38 -25.5 -62t-74.5 -24z" />
    <glyph glyph-name="kafswash-ar.fina" unicode="&#x6aa;" horiz-adv-x="1161" 
d="M1161 -5q-102 0 -167.5 25.5t-96.5 50.5l95 122q37 -16 75.5 -23t102.5 -7q49 0 70 -24t21 -58q0 -38 -25.5 -62t-74.5 -24zM536 -15q-48 0 -112.5 1t-134 3t-133.5 6t-111 9l6 160q67 -4 147.5 -8t167 -6.5t170.5 -2.5q97 0 158 1t94.5 4.5t46.5 11t13 19.5
q0 13 -17 20.5t-65 15t-141 18.5q-118 15 -187.5 33t-99.5 48t-30 79q0 57 34 100t93.5 75t137 54.5t164.5 38.5l34 -146q-133 -22 -211.5 -47t-78.5 -46q0 -8 17 -14t57.5 -12t111.5 -14q125 -14 199 -37.5t106 -65t32 -108.5q0 -53 -23.5 -89.5t-77.5 -58.5t-144 -32
t-223 -10z" />
    <glyph glyph-name="kafRing-ar.init" unicode="&#x6ab;" horiz-adv-x="493" 
d="M0 -5l10 168h154q30 0 41.5 9.5t11.5 31.5q0 26 -24.5 56.5t-56.5 59.5q-26 24 -52.5 47t-44 41t-17.5 30q0 15 2.5 37t7 41.5t11.5 27.5q17 19 59.5 46t98 56t115 56.5t111.5 47.5l66 -148q-90 -37 -159.5 -69.5t-117.5 -60.5q89 -75 137.5 -152t48.5 -139
q0 -48 -28 -90.5t-88 -69t-155 -26.5h-131zM378 409q-44 0 -75 31.5t-31 75.5t31 75.5t75 31.5q45 0 76 -31.5t31 -75.5t-31 -75.5t-76 -31.5zM378 484q14 0 24 9t10 23q0 15 -10 24t-24 9t-24 -9.5t-10 -23.5t10 -23t24 -9z" />
    <glyph glyph-name="kafRing-ar.medi" unicode="&#x6ab;" horiz-adv-x="532" 
d="M0 -5l10 168h141q29 0 47.5 6.5t18.5 34.5q0 21 -19.5 47.5t-48.5 54.5t-58 54.5t-48.5 48t-19.5 34.5q0 37 5.5 64t15.5 37q23 26 78 58.5t133.5 70t171.5 77.5l66 -148q-111 -47 -175.5 -77.5t-105.5 -56.5q47 -43 95.5 -100t81.5 -124q17 -36 35.5 -53t46 -22.5
t71.5 -5.5q48 0 69 -24t21 -58q0 -38 -25 -62t-75 -24q-75 0 -124 16t-74 53q-33 -33 -83.5 -51t-119.5 -18h-131zM382 409q-44 0 -75 31.5t-31 75.5t31 75.5t75 31.5q45 0 76 -31.5t31 -75.5t-31 -75.5t-76 -31.5zM382 484q14 0 24 9t10 23q0 15 -10 24t-24 9t-24 -9.5
t-10 -23.5t10 -23t24 -9z" />
    <glyph glyph-name="kafRing-ar.fina" unicode="&#x6ab;" horiz-adv-x="1020" 
d="M454 -21q-126 0 -208 20t-128 54t-65 77t-19 89q0 59 14 113.5t26 92.5l147 -35q-7 -31 -13.5 -62.5t-6.5 -59.5q0 -36 25.5 -63t86.5 -42.5t167 -15.5q70 0 120.5 2.5t77.5 14.5t27 40q0 20 -19.5 46t-48.5 55t-58.5 55.5t-49 48t-19.5 33.5q0 38 5 65t16 38
q36 38 133 88.5t250 116.5l66 -148q-42 -18 -91.5 -39.5t-99 -45t-90.5 -49.5q45 -41 91 -94t87 -131q19 -37 37.5 -53.5t45.5 -21.5t72 -5q47 0 67.5 -24t20.5 -58q0 -38 -24.5 -62t-73.5 -24q-65 0 -118.5 13t-82.5 56q-39 -40 -97 -58t-127 -22.5t-143 -4.5zM870 411
q-44 0 -75 31.5t-31 75.5t31 75.5t75 31.5q45 0 76 -31.5t31 -75.5t-31 -75.5t-76 -31.5zM870 486q14 0 24 9t10 23q0 15 -10 24t-24 9t-24 -9.5t-10 -23.5t10 -23t24 -9z" />
    <glyph glyph-name="kafDotabove-ar.init" unicode="&#x6ac;" horiz-adv-x="493" 
d="M0 -5l10 168h154q30 0 41.5 9.5t11.5 31.5q0 26 -24.5 56.5t-56.5 59.5q-26 24 -52.5 47t-44 41t-17.5 30q0 15 2.5 37t7 41.5t11.5 27.5q17 19 59.5 46t98 56t115 56.5t111.5 47.5l66 -148q-90 -37 -159.5 -69.5t-117.5 -60.5q89 -75 137.5 -152t48.5 -139
q0 -48 -28 -90.5t-88 -69t-155 -26.5h-131zM186 728q-34 0 -58 24t-24 58t24 59.5t58 25.5t57.5 -25.5t23.5 -59.5t-23.5 -58t-57.5 -24z" />
    <glyph glyph-name="kafDotabove-ar.medi" unicode="&#x6ac;" horiz-adv-x="532" 
d="M0 -5l10 168h141q29 0 47.5 6.5t18.5 34.5q0 21 -19.5 47.5t-48.5 54.5t-58 54.5t-48.5 48t-19.5 34.5q0 37 5.5 64t15.5 37q23 26 78 58.5t133.5 70t171.5 77.5l66 -148q-111 -47 -175.5 -77.5t-105.5 -56.5q47 -43 95.5 -100t81.5 -124q17 -36 35.5 -53t46 -22.5
t71.5 -5.5q48 0 69 -24t21 -58q0 -38 -25 -62t-75 -24q-75 0 -124 16t-74 53q-33 -33 -83.5 -51t-119.5 -18h-131zM244 723q-34 0 -58 24t-24 58t24 59.5t58 25.5t57.5 -25.5t23.5 -59.5t-23.5 -58t-57.5 -24z" />
    <glyph glyph-name="kafDotabove-ar.fina" unicode="&#x6ac;" horiz-adv-x="1002" 
d="M454 -21q-126 0 -208 20t-128 54t-65 77t-19 89q0 59 14 113.5t26 92.5l147 -35q-7 -31 -13.5 -62.5t-6.5 -59.5q0 -36 25.5 -63t86.5 -42.5t167 -15.5q79 0 130.5 6.5t80.5 26.5t40 60.5t9 108.5l-14 411h172l13 -428q2 -70 11 -106.5t30 -49.5t60 -13q48 0 69 -24
t21 -58q0 -38 -25 -62t-75 -24q-46 0 -90 18t-69 65q-45 -46 -110 -67.5t-138 -27t-141 -4.5zM384 224l-30 121q57 11 83 21.5t26 22.5q0 9 -16 24.5t-31.5 36.5t-15.5 49q0 45 37 79t117 62l51 -109q-76 -28 -76 -51q0 -9 10 -21.5t22.5 -27.5t22.5 -32.5t10 -37.5
q0 -18 -6.5 -36.5t-27.5 -36.5t-63 -34t-113 -30zM468 663q-34 0 -58 24t-24 58t24 59.5t58 25.5t57.5 -25.5t23.5 -59.5t-23.5 -58t-57.5 -24z" />
    <glyph glyph-name="kafThreedotsbelow-ar.init" unicode="&#x6ae;" horiz-adv-x="493" 
d="M0 -5l10 168h154q30 0 41.5 9.5t11.5 31.5q0 26 -24.5 56.5t-56.5 59.5q-26 24 -52.5 47t-44 41t-17.5 30q0 15 2.5 37t7 41.5t11.5 27.5q17 19 59.5 46t98 56t115 56.5t111.5 47.5l66 -148q-90 -37 -159.5 -69.5t-117.5 -60.5q89 -75 137.5 -152t48.5 -139
q0 -48 -28 -90.5t-88 -69t-155 -26.5h-131zM153 -132q-20 0 -34.5 14t-14.5 36q0 20 14.5 35.5t34.5 15.5q22 0 36 -15.5t14 -35.5q0 -22 -14 -36t-36 -14zM283 -132q-22 0 -36 14t-14 36q0 20 14 35.5t36 15.5q21 0 35 -15.5t14 -35.5q0 -22 -14 -36t-35 -14zM216 -238
q-21 0 -35 14.5t-14 34.5t14 36t35 16t35.5 -16t14.5 -36t-14.5 -34.5t-35.5 -14.5z" />
    <glyph glyph-name="kafThreedotsbelow-ar.medi" unicode="&#x6ae;" horiz-adv-x="532" 
d="M0 -5l10 168h141q29 0 47.5 6.5t18.5 34.5q0 21 -19.5 47.5t-48.5 54.5t-58 54.5t-48.5 48t-19.5 34.5q0 37 5.5 64t15.5 37q23 26 78 58.5t133.5 70t171.5 77.5l66 -148q-111 -47 -175.5 -77.5t-105.5 -56.5q47 -43 95.5 -100t81.5 -124q17 -36 35.5 -53t46 -22.5
t71.5 -5.5q48 0 69 -24t21 -58q0 -38 -25 -62t-75 -24q-75 0 -124 16t-74 53q-33 -33 -83.5 -51t-119.5 -18h-131zM153 -132q-20 0 -34.5 14t-14.5 36q0 20 14.5 35.5t34.5 15.5q22 0 36 -15.5t14 -35.5q0 -22 -14 -36t-36 -14zM283 -132q-22 0 -36 14t-14 36q0 20 14 35.5
t36 15.5q21 0 35 -15.5t14 -35.5q0 -22 -14 -36t-35 -14zM216 -238q-21 0 -35 14.5t-14 34.5t14 36t35 16t35.5 -16t14.5 -36t-14.5 -34.5t-35.5 -14.5z" />
    <glyph glyph-name="kafThreedotsbelow-ar.fina" unicode="&#x6ae;" horiz-adv-x="1002" 
d="M454 -21q-126 0 -208 20t-128 54t-65 77t-19 89q0 59 14 113.5t26 92.5l147 -35q-7 -31 -13.5 -62.5t-6.5 -59.5q0 -36 25.5 -63t86.5 -42.5t167 -15.5q79 0 130.5 6.5t80.5 26.5t40 60.5t9 108.5l-14 411h172l13 -428q2 -70 11 -106.5t30 -49.5t60 -13q48 0 69 -24
t21 -58q0 -38 -25 -62t-75 -24q-46 0 -90 18t-69 65q-45 -46 -110 -67.5t-138 -27t-141 -4.5zM384 224l-30 121q57 11 83 21.5t26 22.5q0 9 -16 24.5t-31.5 36.5t-15.5 49q0 45 37 79t117 62l51 -109q-76 -28 -76 -51q0 -9 10 -21.5t22.5 -27.5t22.5 -32.5t10 -37.5
q0 -18 -6.5 -36.5t-27.5 -36.5t-63 -34t-113 -30zM374 -153q-20 0 -34.5 14t-14.5 36q0 20 14.5 35.5t34.5 15.5q22 0 36 -15.5t14 -35.5q0 -22 -14 -36t-36 -14zM504 -153q-22 0 -36 14t-14 36q0 20 14 35.5t36 15.5q21 0 35 -15.5t14 -35.5q0 -22 -14 -36t-35 -14z
M437 -259q-21 0 -35 14.5t-14 34.5t14 36t35 16t35.5 -16t14.5 -36t-14.5 -34.5t-35.5 -14.5z" />
    <glyph glyph-name="gafRing-ar.init" unicode="&#x6b0;" horiz-adv-x="493" 
d="M0 -5l10 168h154q30 0 41.5 9.5t11.5 31.5q0 26 -24.5 56.5t-56.5 59.5q-26 24 -52.5 47t-44 41t-17.5 30q0 15 2.5 37t7 41.5t11.5 27.5q17 19 59.5 46t98 56t115 56.5t111.5 47.5l66 -148q-90 -37 -159.5 -69.5t-117.5 -60.5q89 -75 137.5 -152t48.5 -139
q0 -48 -28 -90.5t-88 -69t-155 -26.5h-131zM11 624l-60 115q55 32 151.5 80.5t232.5 112.5l52 -127q-138 -65 -227 -106.5t-149 -74.5zM382 409q-44 0 -75 31.5t-31 75.5t31 75.5t75 31.5q45 0 76 -31.5t31 -75.5t-31 -75.5t-76 -31.5zM382 484q14 0 24 9t10 23q0 15 -10 24
t-24 9t-24 -9.5t-10 -23.5t10 -23t24 -9z" />
    <glyph glyph-name="gafRing-ar.medi" unicode="&#x6b0;" horiz-adv-x="532" 
d="M0 -5l10 168h141q29 0 47.5 6.5t18.5 34.5q0 21 -19.5 47.5t-48.5 54.5t-58 54.5t-48.5 48t-19.5 34.5q0 37 5.5 64t15.5 37q23 26 78 58.5t133.5 70t171.5 77.5l66 -148q-111 -47 -175.5 -77.5t-105.5 -56.5q47 -43 95.5 -100t81.5 -124q17 -36 35.5 -53t46 -22.5
t71.5 -5.5q48 0 69 -24t21 -58q0 -38 -25 -62t-75 -24q-75 0 -124 16t-74 53q-33 -33 -83.5 -51t-119.5 -18h-131zM14 624l-60 115q55 32 151.5 80.5t232.5 112.5l52 -127q-138 -65 -227 -106.5t-149 -74.5zM382 409q-44 0 -75 31.5t-31 75.5t31 75.5t75 31.5q45 0 76 -31.5
t31 -75.5t-31 -75.5t-76 -31.5zM382 484q14 0 24 9t10 23q0 15 -10 24t-24 9t-24 -9.5t-10 -23.5t10 -23t24 -9z" />
    <glyph glyph-name="gafRing-ar.fina" unicode="&#x6b0;" horiz-adv-x="1020" 
d="M454 -21q-126 0 -208 20t-128 54t-65 77t-19 89q0 59 14 113.5t26 92.5l147 -35q-7 -31 -13.5 -62.5t-6.5 -59.5q0 -36 25.5 -63t86.5 -42.5t167 -15.5q70 0 120.5 2.5t77.5 14.5t27 40q0 20 -19.5 46t-48.5 55t-58.5 55.5t-49 48t-19.5 33.5q0 38 5 65t16 38
q36 38 133 88.5t250 116.5l66 -148q-42 -18 -91.5 -39.5t-99 -45t-90.5 -49.5q45 -41 91 -94t87 -131q19 -37 37.5 -53.5t45.5 -21.5t72 -5q47 0 67.5 -24t20.5 -58q0 -38 -24.5 -62t-73.5 -24q-65 0 -118.5 13t-82.5 56q-39 -40 -97 -58t-127 -22.5t-143 -4.5zM524 624
l-60 115q55 32 151.5 80.5t232.5 112.5l52 -127q-138 -65 -227 -106.5t-149 -74.5zM876 411q-44 0 -75 31.5t-31 75.5t31 75.5t75 31.5q45 0 76 -31.5t31 -75.5t-31 -75.5t-76 -31.5zM876 486q14 0 24 9t10 23q0 15 -10 24t-24 9t-24 -9.5t-10 -23.5t10 -23t24 -9z" />
    <glyph glyph-name="gafTwodotsbelow-ar.init" unicode="&#x6b2;" horiz-adv-x="493" 
d="M0 -5l10 168h154q30 0 41.5 9.5t11.5 31.5q0 26 -24.5 56.5t-56.5 59.5q-26 24 -52.5 47t-44 41t-17.5 30q0 15 2.5 37t7 41.5t11.5 27.5q17 19 59.5 46t98 56t115 56.5t111.5 47.5l66 -148q-90 -37 -159.5 -69.5t-117.5 -60.5q89 -75 137.5 -152t48.5 -139
q0 -48 -28 -90.5t-88 -69t-155 -26.5h-131zM11 624l-60 115q55 32 151.5 80.5t232.5 112.5l52 -127q-138 -65 -227 -106.5t-149 -74.5zM305 -232q-31 0 -51.5 21t-20.5 52t20.5 52t51.5 21t53 -21t22 -52t-22 -52t-53 -21zM127 -232q-31 0 -52 21t-21 52t21 52t52 21
q30 0 52 -21t22 -52t-22 -52t-52 -21z" />
    <glyph glyph-name="gafTwodotsbelow-ar.medi" unicode="&#x6b2;" horiz-adv-x="532" 
d="M0 -5l10 168h141q29 0 47.5 6.5t18.5 34.5q0 21 -19.5 47.5t-48.5 54.5t-58 54.5t-48.5 48t-19.5 34.5q0 37 5.5 64t15.5 37q23 26 78 58.5t133.5 70t171.5 77.5l66 -148q-111 -47 -175.5 -77.5t-105.5 -56.5q47 -43 95.5 -100t81.5 -124q17 -36 35.5 -53t46 -22.5
t71.5 -5.5q48 0 69 -24t21 -58q0 -38 -25 -62t-75 -24q-75 0 -124 16t-74 53q-33 -33 -83.5 -51t-119.5 -18h-131zM14 624l-60 115q55 32 151.5 80.5t232.5 112.5l52 -127q-138 -65 -227 -106.5t-149 -74.5zM368 -232q-31 0 -51.5 21t-20.5 52t20.5 52t51.5 21t53 -21
t22 -52t-22 -52t-53 -21zM190 -232q-31 0 -52 21t-21 52t21 52t52 21q30 0 52 -21t22 -52t-22 -52t-52 -21z" />
    <glyph glyph-name="gafTwodotsbelow-ar.fina" unicode="&#x6b2;" horiz-adv-x="1020" 
d="M454 -21q-126 0 -208 20t-128 54t-65 77t-19 89q0 59 14 113.5t26 92.5l147 -35q-7 -31 -13.5 -62.5t-6.5 -59.5q0 -36 25.5 -63t86.5 -42.5t167 -15.5q70 0 120.5 2.5t77.5 14.5t27 40q0 20 -19.5 46t-48.5 55t-58.5 55.5t-49 48t-19.5 33.5q0 38 5 65t16 38
q36 38 133 88.5t250 116.5l66 -148q-42 -18 -91.5 -39.5t-99 -45t-90.5 -49.5q45 -41 91 -94t87 -131q19 -37 37.5 -53.5t45.5 -21.5t72 -5q47 0 67.5 -24t20.5 -58q0 -38 -24.5 -62t-73.5 -24q-65 0 -118.5 13t-82.5 56q-39 -40 -97 -58t-127 -22.5t-143 -4.5zM524 624
l-60 115q55 32 151.5 80.5t232.5 112.5l52 -127q-138 -65 -227 -106.5t-149 -74.5zM494 -253q-31 0 -51.5 21t-20.5 52t20.5 52t51.5 21t53 -21t22 -52t-22 -52t-53 -21zM316 -253q-31 0 -52 21t-21 52t21 52t52 21q30 0 52 -21t22 -52t-22 -52t-52 -21z" />
    <glyph glyph-name="gafThreedots-ar.init" unicode="&#x6b4;" horiz-adv-x="493" 
d="M0 -5l10 168h154q30 0 41.5 9.5t11.5 31.5q0 26 -24.5 56.5t-56.5 59.5q-26 24 -52.5 47t-44 41t-17.5 30q0 15 2.5 37t7 41.5t11.5 27.5q17 19 59.5 46t98 56t115 56.5t111.5 47.5l66 -148q-90 -37 -159.5 -69.5t-117.5 -60.5q89 -75 137.5 -152t48.5 -139
q0 -48 -28 -90.5t-88 -69t-155 -26.5h-131zM11 624l-60 115q55 32 151.5 80.5t232.5 112.5l52 -127q-138 -65 -227 -106.5t-149 -74.5zM-9.29883 940.809q-23.0996 0 -39.2002 16.1006t-16.1006 39.2012q0 23.0996 16.1006 39.9004q16.1006 16.7998 39.2002 16.7998
q22.4004 0 38.501 -16.7998q16.1006 -16.8008 16.1006 -39.9004q0 -23.1006 -16.1006 -39.2012t-38.501 -16.1006zM106.903 863.107q-23.1006 0 -39.2002 16.1006q-16.1006 16.1006 -16.1006 39.2002q0 23.1006 16.1006 39.9014q16.0996 16.7998 39.2002 16.7998
q22.4004 0 38.501 -16.7998q16.1006 -16.8008 16.1006 -39.9014q0 -23.0996 -16.1006 -39.2002t-38.501 -16.1006zM-19.7988 801.507q-23.1006 0 -39.2002 16.0996q-16.1006 16.1006 -16.1006 39.2012t16.1006 39.9004q16.0996 16.8008 39.2002 16.8008
q22.4004 0 38.501 -16.8008q16.1006 -16.7998 16.1006 -39.9004t-16.1006 -39.2012q-16.1006 -16.0996 -38.501 -16.0996z" />
    <glyph glyph-name="gafThreedots-ar.medi" unicode="&#x6b4;" horiz-adv-x="532" 
d="M0 -5l10 168h141q29 0 47.5 6.5t18.5 34.5q0 21 -19.5 47.5t-48.5 54.5t-58 54.5t-48.5 48t-19.5 34.5q0 37 5.5 64t15.5 37q23 26 78 58.5t133.5 70t171.5 77.5l66 -148q-111 -47 -175.5 -77.5t-105.5 -56.5q47 -43 95.5 -100t81.5 -124q17 -36 35.5 -53t46 -22.5
t71.5 -5.5q48 0 69 -24t21 -58q0 -38 -25 -62t-75 -24q-75 0 -124 16t-74 53q-33 -33 -83.5 -51t-119.5 -18h-131zM14 624l-60 115q55 32 151.5 80.5t232.5 112.5l52 -127q-138 -65 -227 -106.5t-149 -74.5zM-9.29883 940.809q-23.0996 0 -39.2002 16.1006t-16.1006 39.2012
q0 23.0996 16.1006 39.9004q16.1006 16.7998 39.2002 16.7998q22.4004 0 38.501 -16.7998q16.1006 -16.8008 16.1006 -39.9004q0 -23.1006 -16.1006 -39.2012t-38.501 -16.1006zM106.903 863.107q-23.1006 0 -39.2002 16.1006q-16.1006 16.1006 -16.1006 39.2002
q0 23.1006 16.1006 39.9014q16.0996 16.7998 39.2002 16.7998q22.4004 0 38.501 -16.7998q16.1006 -16.8008 16.1006 -39.9014q0 -23.0996 -16.1006 -39.2002t-38.501 -16.1006zM-19.7988 801.507q-23.1006 0 -39.2002 16.0996q-16.1006 16.1006 -16.1006 39.2012
t16.1006 39.9004q16.0996 16.8008 39.2002 16.8008q22.4004 0 38.501 -16.8008q16.1006 -16.7998 16.1006 -39.9004t-16.1006 -39.2012q-16.1006 -16.0996 -38.501 -16.0996z" />
    <glyph glyph-name="gafThreedots-ar.fina" unicode="&#x6b4;" horiz-adv-x="1020" 
d="M454 -21q-126 0 -208 20t-128 54t-65 77t-19 89q0 59 14 113.5t26 92.5l147 -35q-7 -31 -13.5 -62.5t-6.5 -59.5q0 -36 25.5 -63t86.5 -42.5t167 -15.5q70 0 120.5 2.5t77.5 14.5t27 40q0 20 -19.5 46t-48.5 55t-58.5 55.5t-49 48t-19.5 33.5q0 38 5 65t16 38
q36 38 133 88.5t250 116.5l66 -148q-42 -18 -91.5 -39.5t-99 -45t-90.5 -49.5q45 -41 91 -94t87 -131q19 -37 37.5 -53.5t45.5 -21.5t72 -5q47 0 67.5 -24t20.5 -58q0 -38 -24.5 -62t-73.5 -24q-65 0 -118.5 13t-82.5 56q-39 -40 -97 -58t-127 -22.5t-143 -4.5zM524 624
l-60 115q55 32 151.5 80.5t232.5 112.5l52 -127q-138 -65 -227 -106.5t-149 -74.5zM500.701 940.809q-23.0996 0 -39.2002 16.1006t-16.1006 39.2012q0 23.0996 16.1006 39.9004q16.1006 16.7998 39.2002 16.7998q22.4004 0 38.501 -16.7998
q16.1006 -16.8008 16.1006 -39.9004q0 -23.1006 -16.1006 -39.2012t-38.501 -16.1006zM616.903 863.107q-23.1006 0 -39.2002 16.1006q-16.1006 16.1006 -16.1006 39.2002q0 23.1006 16.1006 39.9014q16.0996 16.7998 39.2002 16.7998q22.4004 0 38.501 -16.7998
q16.1006 -16.8008 16.1006 -39.9014q0 -23.0996 -16.1006 -39.2002t-38.501 -16.1006zM490.201 801.507q-23.1006 0 -39.2002 16.0996q-16.1006 16.1006 -16.1006 39.2012t16.1006 39.9004q16.0996 16.8008 39.2002 16.8008q22.4004 0 38.501 -16.8008
q16.1006 -16.7998 16.1006 -39.9004t-16.1006 -39.2012q-16.1006 -16.0996 -38.501 -16.0996z" />
    <glyph glyph-name="lamVabove-ar.init" unicode="&#x6b5;" horiz-adv-x="325" 
d="M0 -5l10 168q40 0 58.5 9t23 36.5t1.5 83.5l-19 468h173l21 -490q3 -61 -3.5 -111.5t-32.5 -87t-81.5 -56.5t-150.5 -20zM127 832q-11 20 -28.5 54l-35 68t-29.5 55l66 35l18.5 -37t24 -49.5t23.5 -48.5q11 27 23 56t21.5 51.5t13.5 30.5l66 -28q-4 -10 -15 -33.5
t-24.5 -51.5t-25.5 -54t-18 -42z" />
    <glyph glyph-name="lamVabove-ar.medi" unicode="&#x6b5;" horiz-adv-x="352" 
d="M0 -5l10 168q40 0 58 9t22.5 36.5t2.5 83.5l-15 468h173l17 -467q2 -55 10 -83t28 -37.5t56 -9.5q48 0 69 -24t21 -58q0 -38 -25 -62t-75 -24q-47 0 -92.5 15t-71.5 60q-32 -41 -77.5 -58t-110.5 -17zM131 835q-11 20 -28.5 54l-35 68t-29.5 55l66 35l18.5 -37t24 -49.5
t23.5 -48.5q11 27 23 56t21.5 51.5t13.5 30.5l66 -28q-4 -10 -15 -33.5t-24.5 -51.5t-25.5 -54t-18 -42z" />
    <glyph glyph-name="lamVabove-ar.fina" unicode="&#x6b5;" horiz-adv-x="813" 
d="M24 34q0 28 4 59t15.5 72t35.5 99l156 -54q-14 -39 -21.5 -63.5t-10 -42.5t-2.5 -38q0 -56 43.5 -92.5t123.5 -36.5q76 0 116 26t53.5 80t10.5 139l-20 578h174l14 -467q2 -55 12.5 -83t33.5 -37.5t61 -9.5q48 0 69 -24t21 -58q0 -38 -25.5 -62t-74.5 -24q-15 0 -46 6
t-60 28q-16 -74 -56 -133t-110 -93t-177 -34q-94 0 -171.5 27.5t-123 85.5t-45.5 152zM254 563q-11 20 -28.5 54l-35 68t-29.5 55l66 35l18.5 -37t24 -49.5t23.5 -48.5q11 27 23 56t21.5 51.5t13.5 30.5l66 -28q-4 -10 -15 -33.5t-24.5 -51.5t-25.5 -54t-18 -42z" />
    <glyph glyph-name="lamDotabove-ar.init" unicode="&#x6b6;" horiz-adv-x="325" 
d="M0 -5l10 168q40 0 58.5 9t23 36.5t1.5 83.5l-19 468h173l21 -490q3 -61 -3.5 -111.5t-32.5 -87t-81.5 -56.5t-150.5 -20zM166 817q-34 0 -58 24t-24 58t24 59.5t58 25.5t57.5 -25.5t23.5 -59.5t-23.5 -58t-57.5 -24z" />
    <glyph glyph-name="lamDotabove-ar.medi" unicode="&#x6b6;" horiz-adv-x="352" 
d="M0 -5l10 168q40 0 58 9t22.5 36.5t2.5 83.5l-15 468h173l17 -467q2 -55 10 -83t28 -37.5t56 -9.5q48 0 69 -24t21 -58q0 -38 -25 -62t-75 -24q-47 0 -92.5 15t-71.5 60q-32 -41 -77.5 -58t-110.5 -17zM170 820q-34 0 -58 24t-24 58t24 59.5t58 25.5t57.5 -25.5
t23.5 -59.5t-23.5 -58t-57.5 -24z" />
    <glyph glyph-name="lamDotabove-ar.fina" unicode="&#x6b6;" horiz-adv-x="813" 
d="M24 34q0 28 4 59t15.5 72t35.5 99l156 -54q-14 -39 -21.5 -63.5t-10 -42.5t-2.5 -38q0 -56 43.5 -92.5t123.5 -36.5q76 0 116 26t53.5 80t10.5 139l-20 578h174l14 -467q2 -55 12.5 -83t33.5 -37.5t61 -9.5q48 0 69 -24t21 -58q0 -38 -25.5 -62t-74.5 -24q-15 0 -46 6
t-60 28q-16 -74 -56 -133t-110 -93t-177 -34q-94 0 -171.5 27.5t-123 85.5t-45.5 152zM293 548q-34 0 -58 24t-24 58t24 59.5t58 25.5t57.5 -25.5t23.5 -59.5t-23.5 -58t-57.5 -24z" />
    <glyph glyph-name="lamThreedotsabove-ar.init" unicode="&#x6b7;" horiz-adv-x="325" 
d="M0 -5l10 168q40 0 58.5 9t23 36.5t1.5 83.5l-19 468h173l21 -490q3 -61 -3.5 -111.5t-32.5 -87t-81.5 -56.5t-150.5 -20zM157.904 919.517q-28.8008 0 -47.7012 19.3506t-18.9004 45.4512q0 27.9014 18.9004 47.7012q18.9004 19.8008 47.7012 19.8008
q27.9014 0 47.252 -19.8008q19.3506 -19.7998 19.3506 -47.7012q0 -26.1006 -19.3506 -45.4512t-47.252 -19.3506zM81.4023 778.213q-28.8008 0 -48.6016 20.7012q-19.7998 20.7002 -19.7998 47.7012q0 25.2002 19.7998 46.3506q19.8008 21.1514 48.6016 21.1514
q25.2012 0 45.002 -21.1514q19.7998 -21.1504 19.7998 -46.3506q0 -27.001 -19.7998 -47.7012q-19.8008 -20.7012 -45.002 -20.7012zM237.106 778.213q-27 0 -45.001 20.7012q-18 20.7002 -18 47.7012q0 25.2002 18 46.3506q18.001 21.1514 45.001 21.1514
q27.9014 0 47.7021 -21.1514q19.7998 -21.1504 19.7998 -46.3506q0 -27.001 -19.7998 -47.7012q-19.8008 -20.7012 -47.7021 -20.7012z" />
    <glyph glyph-name="lamThreedotsabove-ar.medi" unicode="&#x6b7;" horiz-adv-x="352" 
d="M0 -5l10 168q40 0 58 9t22.5 36.5t2.5 83.5l-15 468h173l17 -467q2 -55 10 -83t28 -37.5t56 -9.5q48 0 69 -24t21 -58q0 -38 -25 -62t-75 -24q-47 0 -92.5 15t-71.5 60q-32 -41 -77.5 -58t-110.5 -17zM162.904 918.517q-28.8008 0 -47.7012 19.3506t-18.9004 45.4512
q0 27.9014 18.9004 47.7012q18.9004 19.8008 47.7012 19.8008q27.9014 0 47.252 -19.8008q19.3506 -19.7998 19.3506 -47.7012q0 -26.1006 -19.3506 -45.4512t-47.252 -19.3506zM86.4023 777.213q-28.8008 0 -48.6016 20.7012q-19.7998 20.7002 -19.7998 47.7012
q0 25.2002 19.7998 46.3506q19.8008 21.1514 48.6016 21.1514q25.2012 0 45.002 -21.1514q19.7998 -21.1504 19.7998 -46.3506q0 -27.001 -19.7998 -47.7012q-19.8008 -20.7012 -45.002 -20.7012zM242.106 777.213q-27 0 -45.001 20.7012q-18 20.7002 -18 47.7012
q0 25.2002 18 46.3506q18.001 21.1514 45.001 21.1514q27.9014 0 47.7021 -21.1514q19.7998 -21.1504 19.7998 -46.3506q0 -27.001 -19.7998 -47.7012q-19.8008 -20.7012 -47.7021 -20.7012z" />
    <glyph glyph-name="lamThreedotsabove-ar.fina" unicode="&#x6b7;" horiz-adv-x="813" 
d="M24 34q0 28 4 59t15.5 72t35.5 99l156 -54q-14 -39 -21.5 -63.5t-10 -42.5t-2.5 -38q0 -56 43.5 -92.5t123.5 -36.5q76 0 116 26t53.5 80t10.5 139l-20 578h174l14 -467q2 -55 12.5 -83t33.5 -37.5t61 -9.5q48 0 69 -24t21 -58q0 -38 -25.5 -62t-74.5 -24q-15 0 -46 6
t-60 28q-16 -74 -56 -133t-110 -93t-177 -34q-94 0 -171.5 27.5t-123 85.5t-45.5 152zM323 699q-32 0 -53 21.5t-21 50.5q0 31 21 53t53 22q31 0 52.5 -22t21.5 -53q0 -29 -21.5 -50.5t-52.5 -21.5zM238 542q-32 0 -54 23t-22 53q0 28 22 51.5t54 23.5q28 0 50 -23.5
t22 -51.5q0 -30 -22 -53t-50 -23zM411 542q-30 0 -50 23t-20 53q0 28 20 51.5t50 23.5q31 0 53 -23.5t22 -51.5q0 -30 -22 -53t-53 -23z" />
    <glyph glyph-name="lamThreedotsbelow-ar.init" unicode="&#x6b8;" horiz-adv-x="325" 
d="M0 -5l10 168q40 0 58.5 9t23 36.5t1.5 83.5l-19 468h173l21 -490q3 -61 -3.5 -111.5t-32.5 -87t-81.5 -56.5t-150.5 -20zM54 -132q-20 0 -34.5 14t-14.5 36q0 20 14.5 35.5t34.5 15.5q22 0 36 -15.5t14 -35.5q0 -22 -14 -36t-36 -14zM184 -132q-22 0 -36 14t-14 36
q0 20 14 35.5t36 15.5q21 0 35 -15.5t14 -35.5q0 -22 -14 -36t-35 -14zM117 -238q-21 0 -35 14.5t-14 34.5t14 36t35 16t35.5 -16t14.5 -36t-14.5 -34.5t-35.5 -14.5z" />
    <glyph glyph-name="lamThreedotsbelow-ar.medi" unicode="&#x6b8;" horiz-adv-x="352" 
d="M0 -5l10 168q40 0 58 9t22.5 36.5t2.5 83.5l-15 468h173l17 -467q2 -55 10 -83t28 -37.5t56 -9.5q48 0 69 -24t21 -58q0 -38 -25 -62t-75 -24q-47 0 -92.5 15t-71.5 60q-32 -41 -77.5 -58t-110.5 -17zM109 -136q-20 0 -34.5 14t-14.5 36q0 20 14.5 35.5t34.5 15.5
q22 0 36 -15.5t14 -35.5q0 -22 -14 -36t-36 -14zM239 -136q-22 0 -36 14t-14 36q0 20 14 35.5t36 15.5q21 0 35 -15.5t14 -35.5q0 -22 -14 -36t-35 -14zM172 -242q-21 0 -35 14.5t-14 34.5t14 36t35 16t35.5 -16t14.5 -36t-14.5 -34.5t-35.5 -14.5z" />
    <glyph glyph-name="lamThreedotsbelow-ar.fina" unicode="&#x6b8;" horiz-adv-x="813" 
d="M24 244q0 28 4 59t15.5 72t35.5 99l156 -54q-14 -39 -21.5 -63.5t-10 -42.5t-2.5 -38q0 -56 43.5 -92.5t123.5 -36.5q57 0 94 7t56.5 27t26 58.5t3.5 102.5l-20 418h174l20 -455q2 -55 11.5 -86t30.5 -43.5t59 -12.5q48 0 69 -24t21 -58q0 -38 -25.5 -62t-74.5 -24
q-23 0 -57 7.5t-66.5 27.5t-52.5 57q-37 -45 -103 -76.5t-170 -31.5q-94 0 -171.5 27.5t-123 85.5t-45.5 152zM298 -149q-20 0 -34.5 14t-14.5 36q0 20 14.5 35.5t34.5 15.5q22 0 36 -15.5t14 -35.5q0 -22 -14 -36t-36 -14zM428 -149q-22 0 -36 14t-14 36q0 20 14 35.5
t36 15.5q21 0 35 -15.5t14 -35.5q0 -22 -14 -36t-35 -14zM361 -255q-21 0 -35 14.5t-14 34.5t14 36t35 16t35.5 -16t14.5 -36t-14.5 -34.5t-35.5 -14.5z" />
    <glyph glyph-name="noonDotbelow-ar.init" unicode="&#x6b9;" horiz-adv-x="345" 
d="M0 -5l10 168q61 0 86 18.5t25 60.5q0 32 -8.5 73.5t-20.5 84t-22 77.5l161 43q12 -35 25.5 -81.5t23.5 -98.5t10 -104q0 -80 -27 -127.5t-70.5 -72.5t-94 -33t-98.5 -8zM147 610q-34 0 -58 24t-24 58t24 59.5t58 25.5t57.5 -25.5t23.5 -59.5t-23.5 -58t-57.5 -24z
M121 -248q-34 0 -58 23.5t-24 57.5q0 35 24 59.5t58 24.5t57.5 -24.5t23.5 -59.5q0 -34 -23.5 -57.5t-57.5 -23.5z" />
    <glyph glyph-name="noonDotbelow-ar.medi" unicode="&#x6b9;" horiz-adv-x="410" 
d="M0 -5l10 168q34 0 56.5 6.5t36.5 28t23.5 64t18.5 114.5l165 -26q-2 -21 -6 -50.5t-4 -58.5q0 -40 26 -59t94 -19q48 0 69 -24t21 -58q0 -38 -25 -62t-75 -24q-79 0 -127 20.5t-70 63.5q-28 -38 -64 -56t-74.5 -23t-74.5 -5zM207 482q-34 0 -58 24t-24 58t24 59.5
t58 25.5t57.5 -25.5t23.5 -59.5t-23.5 -58t-57.5 -24zM182 -248q-34 0 -58 23.5t-24 57.5q0 35 24 59.5t58 24.5t57.5 -24.5t23.5 -59.5q0 -34 -23.5 -57.5t-57.5 -23.5z" />
    <glyph glyph-name="noonDotbelow-ar.fina" unicode="&#x6b9;" horiz-adv-x="823" 
d="M24 207q0 45 12 98t43 128l156 -54q-13 -36 -23.5 -71.5t-10.5 -69.5q0 -63 46 -97t128 -34q67 0 106.5 25t56 68.5t16.5 99.5q0 38 -11.5 86t-31.5 118l167 44q8 -34 15 -63t15 -60.5t21 -74.5q17 -58 29.5 -99.5t29 -64.5t45.5 -23q48 0 69 -24t21 -58q0 -38 -25.5 -62
t-74.5 -24q-32 0 -72 16t-77 68q-44 -70 -122.5 -105t-187.5 -35q-94 0 -171 26t-123 85t-46 157zM376 615q-34 0 -58 24t-24 58t24 59.5t58 25.5t57.5 -25.5t23.5 -59.5t-23.5 -58t-57.5 -24zM361 -268q-33 0 -55.5 22.5t-22.5 54.5q0 33 22.5 56.5t55.5 23.5t55 -23.5
t22 -56.5q0 -32 -22 -54.5t-55 -22.5z" />
    </font>
</defs>
</svg>
